  0
SECTION
  2
HEADER
  9
$ACADVER
  1
AC1018
  9
$ACADMAINTVER
 70
     2
  9
$DWGCODEPAGE
  3
ANSI_1252
  9
$INSBASE
 10
0.0
 20
0.0
 30
0.0
  9
$EXTMIN
 10
-0.0160093571523703
 20
-0.0226418051154269
 30
-0.0000000000000053
  9
$EXTMAX
 10
420.0224338426425
 20
594.0317278631664
 30
0.0000000000000099
  9
$LIMMIN
 10
0.0
 20
0.0
  9
$LIMMAX
 10
419.9999999999999
 20
594.0
  9
$ORTHOMODE
 70
     1
  9
$REGENMODE
 70
     1
  9
$FILLMODE
 70
     1
  9
$QTEXTMODE
 70
     0
  9
$MIRRTEXT
 70
     1
  9
$LTSCALE
 40
20.0
  9
$ATTMODE
 70
     1
  9
$TEXTSIZE
 40
3.5
  9
$TRACEWID
 40
0.5
  9
$TEXTSTYLE
  7
STANDARD
  9
$CLAYER
  8
VOLL
  9
$CELTYPE
  6
ByLayer
  9
$CECOLOR
 62
   256
  9
$CELTSCALE
 40
1.0
  9
$DISPSILH
 70
     0
  9
$DIMSCALE
 40
2.0
  9
$DIMASZ
 40
3.5
  9
$DIMEXO
 40
1.0
  9
$DIMDLI
 40
7.0
  9
$DIMRND
 40
0.0
  9
$DIMDLE
 40
0.0
  9
$DIMEXE
 40
1.0
  9
$DIMTP
 40
0.0
  9
$DIMTM
 40
0.0
  9
$DIMTXT
 40
3.5
  9
$DIMCEN
 40
1.5
  9
$DIMTSZ
 40
0.0
  9
$DIMTOL
 70
     0
  9
$DIMLIM
 70
     0
  9
$DIMTIH
 70
     0
  9
$DIMTOH
 70
     0
  9
$DIMSE1
 70
     0
  9
$DIMSE2
 70
     0
  9
$DIMTAD
 70
     1
  9
$DIMZIN
 70
     8
  9
$DIMBLK
  1

  9
$DIMASO
 70
     1
  9
$DIMSHO
 70
     0
  9
$DIMPOST
  1

  9
$DIMAPOST
  1

  9
$DIMALT
 70
     0
  9
$DIMALTD
 70
     2
  9
$DIMALTF
 40
25.4
  9
$DIMLFAC
 40
1.0
  9
$DIMTOFL
 70
     1
  9
$DIMTVP
 40
0.0
  9
$DIMTIX
 70
     0
  9
$DIMSOXD
 70
     0
  9
$DIMSAH
 70
     0
  9
$DIMBLK1
  1

  9
$DIMBLK2
  1

  9
$DIMSTYLE
  2
Standard
  9
$DIMCLRD
 70
     0
  9
$DIMCLRE
 70
     0
  9
$DIMCLRT
 70
     1
  9
$DIMTFAC
 40
0.5142857142857144
  9
$DIMGAP
 40
1.5
  9
$DIMJUST
 70
     0
  9
$DIMSD1
 70
     0
  9
$DIMSD2
 70
     0
  9
$DIMTOLJ
 70
     1
  9
$DIMTZIN
 70
     8
  9
$DIMALTZ
 70
     8
  9
$DIMALTTZ
 70
     8
  9
$DIMUPT
 70
     0
  9
$DIMDEC
 70
     2
  9
$DIMTDEC
 70
     2
  9
$DIMALTU
 70
     2
  9
$DIMALTTD
 70
     2
  9
$DIMTXSTY
  7
STANDARD
  9
$DIMAUNIT
 70
     0
  9
$DIMADEC
 70
     2
  9
$DIMALTRND
 40
0.0
  9
$DIMAZIN
 70
     2
  9
$DIMDSEP
 70
    46
  9
$DIMATFIT
 70
     3
  9
$DIMFRAC
 70
     0
  9
$DIMLDRBLK
  1

  9
$DIMLUNIT
 70
     2
  9
$DIMLWD
 70
    -2
  9
$DIMLWE
 70
    -2
  9
$DIMTMOVE
 70
     0
  9
$LUNITS
 70
     2
  9
$LUPREC
 70
     2
  9
$SKETCHINC
 40
1.0
  9
$FILLETRAD
 40
0.0
  9
$AUNITS
 70
     0
  9
$AUPREC
 70
     0
  9
$MENU
  1
ACAD
  9
$ELEVATION
 40
0.0
  9
$PELEVATION
 40
0.0
  9
$THICKNESS
 40
0.0
  9
$LIMCHECK
 70
     0
  9
$CHAMFERA
 40
0.0
  9
$CHAMFERB
 40
0.0
  9
$CHAMFERC
 40
0.0
  9
$CHAMFERD
 40
0.0
  9
$SKPOLY
 70
     0
  9
$TDCREATE
 40
2455397.864709028
  9
$TDUCREATE
 40
2455397.781375695
  9
$TDUPDATE
 40
2455656.342612662
  9
$TDUUPDATE
 40
2455656.259279329
  9
$TDINDWG
 40
0.0799500926
  9
$TDUSRTIMER
 40
0.0799500926
  9
$USRTIMER
 70
     1
  9
$ANGBASE
 50
0.0
  9
$ANGDIR
 70
     0
  9
$PDMODE
 70
     0
  9
$PDSIZE
 40
0.0
  9
$PLINEWID
 40
0.0
  9
$SPLFRAME
 70
     0
  9
$SPLINETYPE
 70
     6
  9
$SPLINESEGS
 70
     8
  9
$HANDSEED
  5
20E2
  9
$SURFTAB1
 70
     6
  9
$SURFTAB2
 70
     6
  9
$SURFTYPE
 70
     6
  9
$SURFU
 70
     6
  9
$SURFV
 70
     6
  9
$UCSBASE
  2

  9
$UCSNAME
  2

  9
$UCSORG
 10
0.0
 20
0.0
 30
0.0
  9
$UCSXDIR
 10
1.0
 20
0.0
 30
0.0
  9
$UCSYDIR
 10
0.0
 20
1.0
 30
0.0
  9
$UCSORTHOREF
  2

  9
$UCSORTHOVIEW
 70
     0
  9
$UCSORGTOP
 10
0.0
 20
0.0
 30
0.0
  9
$UCSORGBOTTOM
 10
0.0
 20
0.0
 30
0.0
  9
$UCSORGLEFT
 10
0.0
 20
0.0
 30
0.0
  9
$UCSORGRIGHT
 10
0.0
 20
0.0
 30
0.0
  9
$UCSORGFRONT
 10
0.0
 20
0.0
 30
0.0
  9
$UCSORGBACK
 10
0.0
 20
0.0
 30
0.0
  9
$PUCSBASE
  2

  9
$PUCSNAME
  2

  9
$PUCSORG
 10
0.0
 20
0.0
 30
0.0
  9
$PUCSXDIR
 10
1.0
 20
0.0
 30
0.0
  9
$PUCSYDIR
 10
0.0
 20
1.0
 30
0.0
  9
$PUCSORTHOREF
  2

  9
$PUCSORTHOVIEW
 70
     0
  9
$PUCSORGTOP
 10
0.0
 20
0.0
 30
0.0
  9
$PUCSORGBOTTOM
 10
0.0
 20
0.0
 30
0.0
  9
$PUCSORGLEFT
 10
0.0
 20
0.0
 30
0.0
  9
$PUCSORGRIGHT
 10
0.0
 20
0.0
 30
0.0
  9
$PUCSORGFRONT
 10
0.0
 20
0.0
 30
0.0
  9
$PUCSORGBACK
 10
0.0
 20
0.0
 30
0.0
  9
$USERI1
 70
     0
  9
$USERI2
 70
     0
  9
$USERI3
 70
     0
  9
$USERI4
 70
     0
  9
$USERI5
 70
     0
  9
$USERR1
 40
0.0
  9
$USERR2
 40
0.0
  9
$USERR3
 40
0.0
  9
$USERR4
 40
0.0
  9
$USERR5
 40
0.0
  9
$WORLDVIEW
 70
     1
  9
$SHADEDGE
 70
     3
  9
$SHADEDIF
 70
    70
  9
$TILEMODE
 70
     1
  9
$MAXACTVP
 70
    16
  9
$PINSBASE
 10
0.0
 20
0.0
 30
0.0
  9
$PLIMCHECK
 70
     0
  9
$PEXTMIN
 10
1.000000000000000E+20
 20
1.000000000000000E+20
 30
1.000000000000000E+20
  9
$PEXTMAX
 10
-1.000000000000000E+20
 20
-1.000000000000000E+20
 30
-1.000000000000000E+20
  9
$PLIMMIN
 10
0.0
 20
0.0
  9
$PLIMMAX
 10
12.0
 20
9.0
  9
$UNITMODE
 70
     0
  9
$VISRETAIN
 70
     0
  9
$PLINEGEN
 70
     0
  9
$PSLTSCALE
 70
     0
  9
$TREEDEPTH
 70
  3020
  9
$CMLSTYLE
  2
Standard
  9
$CMLJUST
 70
     0
  9
$CMLSCALE
 40
1.0
  9
$PROXYGRAPHICS
 70
     1
  9
$MEASUREMENT
 70
     0
  9
$CELWEIGHT
370
    -1
  9
$ENDCAPS
280
     0
  9
$JOINSTYLE
280
     0
  9
$LWDISPLAY
290
     0
  9
$INSUNITS
 70
     0
  9
$HYPERLINKBASE
  1

  9
$STYLESHEET
  1
monochrome 1.ctb
  9
$XEDIT
290
     1
  9
$CEPSNTYPE
380
     0
  9
$PSTYLEMODE
290
     1
  9
$FINGERPRINTGUID
  2
{D68B0D02-A558-11D7-B632-000102183313}
  9
$VERSIONGUID
  2
{E1D83820-5CE5-4BD6-8C66-0DCEAF33F4FE}
  9
$EXTNAMES
290
     1
  9
$PSVPSCALE
 40
0.0
  9
$OLESTARTUP
290
     0
  9
$SORTENTS
280
   127
  9
$INDEXCTL
280
     0
  9
$HIDETEXT
280
     0
  9
$XCLIPFRAME
290
     0
  9
$HALOGAP
280
     0
  9
$OBSCOLOR
 70
   257
  9
$OBSLTYPE
280
     0
  9
$INTERSECTIONDISPLAY
280
     0
  9
$INTERSECTIONCOLOR
 70
   257
  9
$DIMASSOC
280
     1
  9
$PROJECTNAME
  1

  0
ENDSEC
  0
SECTION
  2
CLASSES
  0
CLASS
  1
ACDBDICTIONARYWDFLT
  2
AcDbDictionaryWithDefault
  3
ObjectDBX Classes
 90
        0
 91
        1
280
     0
281
     0
  0
CLASS
  1
DICTIONARYVAR
  2
AcDbDictionaryVar
  3
ObjectDBX Classes
 90
        0
 91
        2
280
     0
281
     0
  0
ENDSEC
  0
SECTION
  2
TABLES
  0
TABLE
  2
VPORT
  5
8
330
0
100
AcDbSymbolTable
 70
     3
  0
VPORT
  5
20E1
330
8
100
AcDbSymbolTableRecord
100
AcDbViewportTableRecord
  2
*Active
 70
     0
 10
0.0
 20
0.0
 11
1.0
 21
1.0
 12
210.0032122427451
 22
297.0045430290255
 13
0.0
 23
0.0
 14
1.0
 24
1.0
 15
10.0
 25
10.0
 16
0.0
 26
0.0
 36
1.0
 17
0.0
 27
0.0
 37
0.0
 40
598.8515785754282
 41
1.334231805929919
 42
50.0
 43
0.0
 44
0.0
 50
0.0
 51
0.0
 71
     0
 72
  1500
 73
     1
 74
     0
 75
     0
 76
     0
 77
     0
 78
     0
281
     0
 65
     1
110
0.0
120
0.0
130
0.0
111
1.0
121
0.0
131
0.0
112
0.0
122
1.0
132
0.0
 79
     0
146
0.0
  0
ENDTAB
  0
TABLE
  2
LTYPE
  5
5
330
0
100
AcDbSymbolTable
 70
     3
  0
LTYPE
  5
13
330
5
100
AcDbSymbolTableRecord
100
AcDbLinetypeTableRecord
  2
ByBlock
 70
     0
  3

 72
    65
 73
     0
 40
0.0
  0
LTYPE
  5
14
330
5
100
AcDbSymbolTableRecord
100
AcDbLinetypeTableRecord
  2
ByLayer
 70
     0
  3

 72
    65
 73
     0
 40
0.0
  0
LTYPE
  5
15
330
5
100
AcDbSymbolTableRecord
100
AcDbLinetypeTableRecord
  2
Continuous
 70
     0
  3
Solid line
 72
    65
 73
     0
 40
0.0
  0
LTYPE
  5
25
330
5
100
AcDbSymbolTableRecord
100
AcDbLinetypeTableRecord
  2
STRICHPUNKT
 70
     0
  3
__ . __ . __ . __ . __ . __ . __ . __ . __ . __
 72
    65
 73
     4
 40
1.0
 49
0.5
 74
     0
 49
-0.25
 74
     0
 49
0.0
 74
     0
 49
-0.25
 74
     0
  0
LTYPE
  5
32
330
5
100
AcDbSymbolTableRecord
100
AcDbLinetypeTableRecord
  2
AUSGEZOGEN
 70
     0
  3
Ausgezogene Linie
 72
    65
 73
     0
 40
0.0
  0
ENDTAB
  0
TABLE
  2
LAYER
  5
2
330
0
100
AcDbSymbolTable
 70
     9
  0
LAYER
  5
10
330
2
100
AcDbSymbolTableRecord
100
AcDbLayerTableRecord
  2
0
 70
     0
 62
     7
  6
Continuous
370
    -3
390
F
  0
LAYER
  5
2A
330
2
100
AcDbSymbolTableRecord
100
AcDbLayerTableRecord
  2
VOLL
 70
     0
 62
     1
  6
Continuous
370
    -3
390
F
  0
LAYER
  5
2B
330
2
100
AcDbSymbolTableRecord
100
AcDbLayerTableRecord
  2
HILF
 70
     0
 62
     2
  6
Continuous
370
    -3
390
F
  0
LAYER
  5
2C
330
2
100
AcDbSymbolTableRecord
100
AcDbLayerTableRecord
  2
MITTEL
 70
     0
 62
     2
  6
STRICHPUNKT
370
    -3
390
F
  0
LAYER
  5
2F
330
2
100
AcDbSymbolTableRecord
100
AcDbLayerTableRecord
  2
BEM
 70
     0
 62
     7
  6
Continuous
370
    -3
390
F
  0
LAYER
  5
30
330
2
100
AcDbSymbolTableRecord
100
AcDbLayerTableRecord
  2
STEMPEL
 70
     0
 62
     3
  6
Continuous
370
    -3
390
F
  0
LAYER
  5
31
330
2
100
AcDbSymbolTableRecord
100
AcDbLayerTableRecord
  2
TEXT
 70
     0
 62
     7
  6
Continuous
370
    -3
390
F
  0
LAYER
  5
195
330
2
100
AcDbSymbolTableRecord
100
AcDbLayerTableRecord
  2
DEFPOINTS
 70
     0
 62
     7
  6
AUSGEZOGEN
290
     0
370
    -3
390
F
  0
LAYER
  5
3B7
330
2
100
AcDbSymbolTableRecord
100
AcDbLayerTableRecord
  2
SCHRAFF
 70
     0
 62
     7
  6
Continuous
370
    -3
390
F
  0
ENDTAB
  0
TABLE
  2
STYLE
  5
3
330
0
100
AcDbSymbolTable
 70
     2
  0
STYLE
  5
11
330
3
100
AcDbSymbolTableRecord
100
AcDbTextStyleTableRecord
  2
STANDARD
 70
     0
 40
0.0
 41
0.8
 50
0.0
 71
     0
 42
3.5
  3
simplex.shx
  4

  0
STYLE
  5
24
330
3
100
AcDbSymbolTableRecord
100
AcDbTextStyleTableRecord
  2
GREEKS
 70
     0
 40
0.0
 41
0.8
 50
0.0
 71
     0
 42
2.5
  3
SIMPLEX.shx
  4

  0
ENDTAB
  0
TABLE
  2
VIEW
  5
6
330
0
100
AcDbSymbolTable
 70
     0
  0
ENDTAB
  0
TABLE
  2
UCS
  5
7
330
0
100
AcDbSymbolTable
 70
     0
  0
ENDTAB
  0
TABLE
  2
APPID
  5
9
330
0
100
AcDbSymbolTable
 70
     1
  0
APPID
  5
12
330
9
100
AcDbSymbolTableRecord
100
AcDbRegAppTableRecord
  2
ACAD
 70
     0
  0
ENDTAB
  0
TABLE
  2
DIMSTYLE
  5
A
330
0
100
AcDbSymbolTable
 70
     1
100
AcDbDimStyleTable
 71
     1
340
9D
  0
DIMSTYLE
105
9D
102
{ACAD_REACTORS
330
1DCC
330
1DA9
330
2011
330
2030
102
}
330
A
100
AcDbSymbolTableRecord
100
AcDbDimStyleTableRecord
  2
Standard
 70
     0
340
11
  0
ENDTAB
  0
TABLE
  2
BLOCK_RECORD
  5
1
330
0
100
AcDbSymbolTable
 70
    13
  0
BLOCK_RECORD
  5
1E
102
{ACAD_XDICTIONARY
360
A0
102
}
330
1
100
AcDbSymbolTableRecord
100
AcDbBlockTableRecord
  2
*Model_Space
340
21
  0
BLOCK_RECORD
  5
1A
102
{ACAD_XDICTIONARY
360
A2
102
}
330
1
100
AcDbSymbolTableRecord
100
AcDbBlockTableRecord
  2
*Paper_Space
340
1D
  0
BLOCK_RECORD
  5
22
330
1
100
AcDbSymbolTableRecord
100
AcDbBlockTableRecord
  2
LOGO
340
0
102
{BLKREFS
331
9B
102
}
  0
BLOCK_RECORD
  5
1CB6
330
1
100
AcDbSymbolTableRecord
100
AcDbBlockTableRecord
  2
*X3
340
0
102
{BLKREFS
331
1DAA
102
}
  0
BLOCK_RECORD
  5
1E2A
330
1
100
AcDbSymbolTableRecord
100
AcDbBlockTableRecord
  2
*D4
340
0
  0
BLOCK_RECORD
  5
1E5E
330
1
100
AcDbSymbolTableRecord
100
AcDbBlockTableRecord
  2
*D7
340
0
  0
BLOCK_RECORD
  5
2012
330
1
100
AcDbSymbolTableRecord
100
AcDbBlockTableRecord
  2
*D11
340
0
  0
BLOCK_RECORD
  5
2031
330
1
100
AcDbSymbolTableRecord
100
AcDbBlockTableRecord
  2
*D12
340
0
  0
ENDTAB
  0
ENDSEC
  0
SECTION
  2
BLOCKS
  0
BLOCK
  5
35
330
1E
100
AcDbEntity
  8
0
100
AcDbBlockBegin
  2
*Model_Space
 70
     0
 10
0.0
 20
0.0
 30
0.0
  3
*Model_Space
  1

  0
ENDBLK
  5
36
330
1E
100
AcDbEntity
  8
0
100
AcDbBlockEnd
  0
BLOCK
  5
33
330
1A
100
AcDbEntity
 67
     1
  8
0
100
AcDbBlockBegin
  2
*Paper_Space
 70
     0
 10
0.0
 20
0.0
 30
0.0
  3
*Paper_Space
  1

  0
ENDBLK
  5
34
330
1A
100
AcDbEntity
 67
     1
  8
0
100
AcDbBlockEnd
  0
BLOCK
  5
37
330
22
100
AcDbEntity
  8
0
100
AcDbBlockBegin
  2
LOGO
 70
     0
 10
0.0
 20
0.0
 30
0.0
  3
LOGO
  1

  0
ARC
  5
38
330
22
100
AcDbEntity
  8
0
100
AcDbCircle
 10
11.59973089678112
 20
-9.271599258481501
 30
0.0
 40
4.5
100
AcDbArc
 50
270.0
 51
231.0575587310159
  0
LINE
  5
39
330
22
100
AcDbEntity
  8
0
100
AcDbLine
 10
3.599730896781125
 20
-4.771599258481529
 30
0.0
 11
3.599730896781153
 21
-11.77159925848133
 31
0.0
  0
LINE
  5
3A
330
22
100
AcDbEntity
  8
0
100
AcDbLine
 10
2.599730896781125
 20
-4.771599258481529
 30
0.0
 11
2.599730896781153
 21
-11.77159925848133
 31
0.0
  0
CIRCLE
  5
3B
330
22
100
AcDbEntity
  8
0
100
AcDbCircle
 10
11.59973089678112
 20
-9.271599258481501
 30
0.0
 40
3.5
  0
ARC
  5
3C
330
22
100
AcDbEntity
  8
0
100
AcDbCircle
 10
31.59973089678115
 20
-9.271599258481472
 30
0.0
 40
4.5
100
AcDbArc
 50
270.0
 51
231.0575587310182
  0
LINE
  5
3D
330
22
100
AcDbEntity
  8
0
100
AcDbLine
 10
17.59973089678112
 20
-4.771599258481472
 30
0.0
 11
17.59973089678115
 21
-13.77159925848147
 31
0.0
  0
ARC
  5
3E
330
22
100
AcDbEntity
  8
0
100
AcDbCircle
 10
22.59973089678116
 20
-7.271599258481472
 30
0.0
 40
2.5
100
AcDbArc
 50
293.1161887722295
 51
90.0
  0
CIRCLE
  5
3F
330
22
100
AcDbEntity
  8
0
100
AcDbCircle
 10
31.59973089678115
 20
-9.271599258481472
 30
0.0
 40
3.5
  0
ARC
  5
40
330
22
100
AcDbEntity
  8
0
100
AcDbCircle
 10
4.599730896781153
 20
-11.77159925848133
 30
0.0
 40
1.0
100
AcDbArc
 50
180.0
 51
270.0
  0
ARC
  5
41
330
22
100
AcDbEntity
  8
0
100
AcDbCircle
 10
4.599730896781153
 20
-11.77159925848133
 30
0.0
 40
2.0
100
AcDbArc
 50
179.9999999999992
 51
270.0
  0
LINE
  5
42
330
22
100
AcDbEntity
  8
0
100
AcDbLine
 10
11.59973089678115
 20
-13.77159925848144
 30
0.0
 11
4.599730896781153
 21
-13.77159925848147
 31
0.0
  0
LINE
  5
43
330
22
100
AcDbEntity
  8
0
100
AcDbLine
 10
8.771303772034769
 20
-12.77159925848136
 30
0.0
 11
4.599730896781153
 21
-12.77159925848133
 31
0.0
  0
LINE
  5
44
330
22
100
AcDbEntity
  8
0
100
AcDbLine
 10
31.59973089678115
 20
-13.77159925848147
 30
0.0
 11
23.6715276665056
 21
-13.77159925848144
 31
0.0
  0
LINE
  5
45
330
22
100
AcDbEntity
  8
0
100
AcDbLine
 10
23.56565672307022
 20
-9.51278021337896
 30
0.0
 11
24.4388546544846
 21
-12.77159925848144
 31
0.0
  0
LINE
  5
46
330
22
100
AcDbEntity
  8
0
100
AcDbLine
 10
22.59973089678116
 20
-9.771599258481472
 30
0.0
 11
18.59973089678112
 21
-9.771599258481472
 31
0.0
  0
LINE
  5
47
330
22
100
AcDbEntity
  8
0
100
AcDbLine
 10
18.59973089678115
 20
-13.77159925848144
 30
0.0
 11
17.59973089678115
 21
-13.77159925848144
 31
0.0
  0
LINE
  5
48
330
22
100
AcDbEntity
  8
0
100
AcDbLine
 10
18.59973089678115
 20
-9.771599258481472
 30
0.0
 11
18.59973089678115
 21
-13.77159925848144
 31
0.0
  0
LINE
  5
49
330
22
100
AcDbEntity
  8
0
100
AcDbLine
 10
22.59973089678116
 20
-9.771599258481472
 30
0.0
 11
23.67152766650562
 21
-13.77159925848147
 31
0.0
  0
ARC
  5
4A
330
22
100
AcDbEntity
  8
0
100
AcDbCircle
 10
22.59973089678116
 20
-7.271599258481472
 30
0.0
 40
2.5
100
AcDbArc
 50
270.0
 51
270.0000000000007
  0
LINE
  5
4B
330
22
100
AcDbEntity
  8
0
100
AcDbLine
 10
28.77130377203494
 20
-12.77159925848147
 30
0.0
 11
24.43885465448463
 21
-12.77159925848144
 31
0.0
  0
LINE
  5
4C
330
22
100
AcDbEntity
  8
0
100
AcDbLine
 10
3.599730896781125
 20
-4.771599258481472
 30
0.0
 11
2.599730896781125
 21
-4.771599258481472
 31
0.0
  0
LINE
  5
4D
330
22
100
AcDbEntity
  8
0
100
AcDbLine
 10
22.59973089678116
 20
-8.771599258481472
 30
0.0
 11
18.59973089678115
 21
-8.771599258481472
 31
0.0
  0
LINE
  5
4E
330
22
100
AcDbEntity
  8
0
100
AcDbLine
 10
22.59973089678116
 20
-5.771599258481472
 30
0.0
 11
18.59973089678115
 21
-5.771599258481472
 31
0.0
  0
LINE
  5
4F
330
22
100
AcDbEntity
  8
0
100
AcDbLine
 10
22.59973089678116
 20
-4.771599258481472
 30
0.0
 11
17.59973089678115
 21
-4.771599258481472
 31
0.0
  0
LINE
  5
50
330
22
100
AcDbEntity
  8
0
100
AcDbLine
 10
18.59973089678115
 20
-5.771599258481472
 30
0.0
 11
18.59973089678115
 21
-8.771599258481472
 31
0.0
  0
ARC
  5
51
330
22
100
AcDbEntity
  8
0
100
AcDbCircle
 10
22.59973089678116
 20
-7.271599258481472
 30
0.0
 40
1.5
100
AcDbArc
 50
270.0
 51
90.0
  0
ENDBLK
  5
52
330
22
100
AcDbEntity
  8
0
100
AcDbBlockEnd
  0
BLOCK
  5
1CB7
330
1CB6
100
AcDbEntity
  8
0
100
AcDbBlockBegin
  2
*X3
 70
     1
 10
0.0
 20
0.0
 30
0.0
  3
*X3
  1

  0
LINE
  5
1CB8
330
1CB6
100
AcDbEntity
  8
0
 62
     0
100
AcDbLine
 10
174.3542242754238
 20
391.7554647425262
 30
0.0
 11
174.2467033047766
 21
391.8629857131733
 31
0.0
  0
LINE
  5
1CB9
330
1CB6
100
AcDbEntity
  8
0
 62
     0
100
AcDbLine
 10
174.2936151227507
 20
391.674652538962
 30
0.0
 11
174.0786302250715
 21
391.8896374366412
 31
0.0
  0
LINE
  5
1CBA
330
1CB6
100
AcDbEntity
  8
0
 62
     0
100
AcDbLine
 10
174.2330059700775
 20
391.5938403353978
 30
0.0
 11
173.9191424998638
 21
391.9077038056115
 31
0.0
  0
LINE
  5
1CBB
330
1CB6
100
AcDbEntity
  8
0
 62
     0
100
AcDbLine
 10
174.1723968174044
 20
391.5130281318336
 30
0.0
 11
173.766943220524
 21
391.918481728714
 31
0.0
  0
LINE
  5
1CBC
330
1CB6
100
AcDbEntity
  8
0
 62
     0
100
AcDbLine
 10
174.1117876647312
 20
391.4322159282694
 30
0.0
 11
173.6210631922289
 21
391.9229404007718
 31
0.0
  0
LINE
  5
1CBD
330
1CB6
100
AcDbEntity
  8
0
 62
     0
100
AcDbLine
 10
174.0511785120581
 20
391.3514037247053
 30
0.0
 11
173.4807555831823
 21
391.9218266535811
 31
0.0
  0
LINE
  5
1CBE
330
1CB6
100
AcDbEntity
  8
0
 62
     0
100
AcDbLine
 10
173.990569359385
 20
391.2705915211411
 30
0.0
 11
173.3454306405374
 21
391.9157302399887
 31
0.0
  0
LINE
  5
1CBF
330
1CB6
100
AcDbEntity
  8
0
 62
     0
100
AcDbLine
 10
173.9299602067118
 20
391.189779317577
 30
0.0
 11
173.2146132699981
 21
391.9051262542907
 31
0.0
  0
LINE
  5
1CC0
330
1CB6
100
AcDbEntity
  8
0
 62
     0
100
AcDbLine
 10
173.8693510540387
 20
391.1089671140127
 30
0.0
 11
173.0879143839475
 21
391.890403784104
 31
0.0
  0
LINE
  5
1CC1
330
1CB6
100
AcDbEntity
  8
0
 62
     0
100
AcDbLine
 10
173.8087419013656
 20
391.0281549104486
 30
0.0
 11
172.9650109159111
 21
391.8718858959031
 31
0.0
  0
LINE
  5
1CC2
330
1CB6
100
AcDbEntity
  8
0
 62
     0
100
AcDbLine
 10
173.7481327486925
 20
390.9473427068844
 30
0.0
 11
172.8456314956742
 21
391.8498439599026
 31
0.0
  0
LINE
  5
1CC3
330
1CB6
100
AcDbEntity
  8
0
 62
     0
100
AcDbLine
 10
173.6875235960193
 20
390.8665305033202
 30
0.0
 11
172.7295459401507
 21
391.8245081591889
 31
0.0
  0
LINE
  5
1CC4
330
1CB6
100
AcDbEntity
  8
0
 62
     0
100
AcDbLine
 10
173.6269144433462
 20
390.7857182997561
 30
0.0
 11
172.6165573872022
 21
391.7960753559
 31
0.0
  0
LINE
  5
1CC5
330
1CB6
100
AcDbEntity
  8
0
 62
     0
100
AcDbLine
 10
173.566305290673
 20
390.7049060961918
 30
0.0
 11
172.5064963039665
 21
391.7647150828983
 31
0.0
  0
LINE
  5
1CC6
330
1CB6
100
AcDbEntity
  8
0
 62
     0
100
AcDbLine
 10
173.5056961379999
 20
390.6240938926277
 30
0.0
 11
172.3992158527356
 21
391.730574177892
 31
0.0
  0
LINE
  5
1CC7
330
1CB6
100
AcDbEntity
  8
0
 62
     0
100
AcDbLine
 10
173.4450869853268
 20
390.5432816890635
 30
0.0
 11
172.2945882584408
 21
391.6937804159494
 31
0.0
  0
LINE
  5
1CC8
330
1CB6
100
AcDbEntity
  8
0
 62
     0
100
AcDbLine
 10
173.3844778326537
 20
390.4624694854994
 30
0.0
 11
172.1925019275875
 21
391.6544453905655
 31
0.0
  0
LINE
  5
1CC9
330
1CB6
100
AcDbEntity
  8
0
 62
     0
100
AcDbLine
 10
173.3238686799805
 20
390.3816572819352
 30
0.0
 11
172.0928591395714
 21
391.6126668223443
 31
0.0
  0
LINE
  5
1CCA
330
1CB6
100
AcDbEntity
  8
0
 62
     0
100
AcDbLine
 10
173.2632595273074
 20
390.300845078371
 30
0.0
 11
171.9955741800994
 21
391.568530425579
 31
0.0
  0
LINE
  5
1CCB
330
1CB6
100
AcDbEntity
  8
0
 62
     0
100
AcDbLine
 10
173.2026503746343
 20
390.2200328748068
 30
0.0
 11
171.9005718205258
 21
391.5221114289152
 31
0.0
  0
LINE
  5
1CCC
330
1CB6
100
AcDbEntity
  8
0
 62
     0
100
AcDbLine
 10
173.1420412219611
 20
390.1392206712427
 30
0.0
 11
171.8077860711636
 21
391.4734758220401
 31
0.0
  0
LINE
  5
1CCD
330
1CB6
100
AcDbEntity
  8
0
 62
     0
100
AcDbLine
 10
173.081432069288
 20
390.0584084676785
 30
0.0
 11
171.7171591541305
 21
391.422681382836
 31
0.0
  0
LINE
  5
1CCE
330
1CB6
100
AcDbEntity
  8
0
 62
     0
100
AcDbLine
 10
173.0208229166149
 20
389.9775962641143
 30
0.0
 11
171.6286406541195
 21
391.3697785266096
 31
0.0
  0
LINE
  5
1CCF
330
1CB6
100
AcDbEntity
  8
0
 62
     0
100
AcDbLine
 10
172.9602137639417
 20
389.8967840605501
 30
0.0
 11
171.5421868150128
 21
391.3148110094789
 31
0.0
  0
LINE
  5
1CD0
330
1CB6
100
AcDbEntity
  8
0
 62
     0
100
AcDbLine
 10
172.8996046112686
 20
389.8159718569859
 30
0.0
 11
171.457759957431
 21
391.2578165108235
 31
0.0
  0
LINE
  5
1CD1
330
1CB6
100
AcDbEntity
  8
0
 62
     0
100
AcDbLine
 10
172.8389954585955
 20
389.7351596534218
 30
0.0
 11
171.3753279977798
 21
391.1988271142374
 31
0.0
  0
LINE
  5
1CD2
330
1CB6
100
AcDbEntity
  8
0
 62
     0
100
AcDbLine
 10
172.7783863059223
 20
389.6543474498576
 30
0.0
 11
171.2948640535931
 21
391.1378697021868
 31
0.0
  0
LINE
  5
1CD3
330
1CB6
100
AcDbEntity
  8
0
 62
     0
100
AcDbLine
 10
172.7177771532492
 20
389.5735352462934
 30
0.0
 11
171.2163461232806
 21
391.0749662762619
 31
0.0
  0
LINE
  5
1CD4
330
1CB6
100
AcDbEntity
  8
0
 62
     0
100
AcDbLine
 10
172.657168000576
 20
389.4927230427292
 30
0.0
 11
171.1397568310397
 21
391.0101342122655
 31
0.0
  0
LINE
  5
1CD5
330
1CB6
100
AcDbEntity
  8
0
 62
     0
100
AcDbLine
 10
172.5965588479029
 20
389.4119108391651
 30
0.0
 11
171.065083229832
 21
390.9433864572359
 31
0.0
  0
LINE
  5
1CD6
330
1CB6
100
AcDbEntity
  8
0
 62
     0
100
AcDbLine
 10
172.5359496952298
 20
389.3310986356009
 30
0.0
 11
170.9923166571071
 21
390.8747316737236
 31
0.0
  0
LINE
  5
1CD7
330
1CB6
100
AcDbEntity
  8
0
 62
     0
100
AcDbLine
 10
172.4753405425567
 20
389.2502864320367
 30
0.0
 11
170.9214526394723
 21
390.8041743351211
 31
0.0
  0
LINE
  5
1CD8
330
1CB6
100
AcDbEntity
  8
0
 62
     0
100
AcDbLine
 10
172.4147313898835
 20
389.1694742284725
 30
0.0
 11
170.8524908438397
 21
390.7317147745163
 31
0.0
  0
LINE
  5
1CD9
330
1CB6
100
AcDbEntity
  8
0
 62
     0
100
AcDbLine
 10
172.3541222372104
 20
389.0886620249083
 30
0.0
 11
170.7854350737987
 21
390.65734918832
 31
0.0
  0
LINE
  5
1CDA
330
1CB6
100
AcDbEntity
  8
0
 62
     0
100
AcDbLine
 10
172.2935130845373
 20
389.0078498213441
 30
0.0
 11
170.7202933111217
 21
390.5810695947597
 31
0.0
  0
LINE
  5
1CDB
330
1CB6
100
AcDbEntity
  8
0
 62
     0
100
AcDbLine
 10
172.2329039318641
 20
388.9270376177799
 30
0.0
 11
170.6570778034651
 21
390.502863746179
 31
0.0
  0
LINE
  5
1CDC
330
1CB6
100
AcDbEntity
  8
0
 62
     0
100
AcDbLine
 10
172.172294779191
 20
388.8462254142158
 30
0.0
 11
170.5958052005326
 21
390.4227149928743
 31
0.0
  0
LINE
  5
1CDD
330
1CB6
100
AcDbEntity
  8
0
 62
     0
100
AcDbLine
 10
172.1116856265178
 20
388.7654132106516
 30
0.0
 11
170.5364967422735
 21
390.340602094896
 31
0.0
  0
LINE
  5
1CDE
330
1CB6
100
AcDbEntity
  8
0
 62
     0
100
AcDbLine
 10
172.0510764738447
 20
388.6846010070874
 30
0.0
 11
170.479178504179
 21
390.2564989767532
 31
0.0
  0
LINE
  5
1CDF
330
1CB6
100
AcDbEntity
  8
0
 62
     0
100
AcDbLine
 10
171.9904673211716
 20
388.6037888035233
 30
0.0
 11
170.4238817064607
 21
390.1703744182341
 31
0.0
  0
LINE
  5
1CE0
330
1CB6
100
AcDbEntity
  8
0
 62
     0
100
AcDbLine
 10
171.9298581684985
 20
388.5229765999591
 30
0.0
 11
170.370643095982
 21
390.0821916724756
 31
0.0
  0
LINE
  5
1CE1
330
1CB6
100
AcDbEntity
  8
0
 62
     0
100
AcDbLine
 10
171.8692490158254
 20
388.4421643963949
 30
0.0
 11
170.3195054123617
 21
389.9919079998586
 31
0.0
  0
LINE
  5
1CE2
330
1CB6
100
AcDbEntity
  8
0
 62
     0
100
AcDbLine
 10
171.8086398631522
 20
388.3613521928308
 30
0.0
 11
170.2705179528668
 21
389.8994741031162
 31
0.0
  0
LINE
  5
1CE3
330
1CB6
100
AcDbEntity
  8
0
 62
     0
100
AcDbLine
 10
171.7480307104791
 20
388.2805399892665
 30
0.0
 11
170.2237372547716
 21
389.804833444974
 31
0.0
  0
LINE
  5
1CE4
330
1CB6
100
AcDbEntity
  8
0
 62
     0
100
AcDbLine
 10
171.6874215578059
 20
388.1997277857024
 30
0.0
 11
170.1792279191105
 21
389.7079214243979
 31
0.0
  0
LINE
  5
1CE5
330
1CB6
100
AcDbEntity
  8
0
 62
     0
100
AcDbLine
 10
171.6268124051328
 20
388.1189155821382
 30
0.0
 11
170.1370636066073
 21
389.6086643806636
 31
0.0
  0
LINE
  5
1CE6
330
1CB6
100
AcDbEntity
  8
0
 62
     0
100
AcDbLine
 10
171.5662032524597
 20
388.038103378574
 30
0.0
 11
170.0973282456633
 21
389.5069783853704
 31
0.0
  0
LINE
  5
1CE7
330
1CB6
100
AcDbEntity
  8
0
 62
     0
100
AcDbLine
 10
171.5055940997865
 20
387.9572911750098
 30
0.0
 11
170.0601175044976
 21
389.4027677702987
 31
0.0
  0
LINE
  5
1CE8
330
1CB6
100
AcDbEntity
  8
0
 62
     0
100
AcDbLine
 10
171.4449849471134
 20
387.8764789714456
 30
0.0
 11
170.0255405961721
 21
389.2959233223869
 31
0.0
  0
LINE
  5
1CE9
330
1CB6
100
AcDbEntity
  8
0
 62
     0
100
AcDbLine
 10
171.3843757944403
 20
387.7956667678814
 30
0.0
 11
169.993722508205
 21
389.1863200541168
 31
0.0
  0
LINE
  5
1CEA
330
1CB6
100
AcDbEntity
  8
0
 62
     0
100
AcDbLine
 10
171.3237666417671
 20
387.7148545643173
 30
0.0
 11
169.964806780718
 21
389.0738144253664
 31
0.0
  0
LINE
  5
1CEB
330
1CB6
100
AcDbEntity
  8
0
 62
     0
100
AcDbLine
 10
171.263157489094
 20
387.6340423607532
 30
0.0
 11
169.938959003048
 21
388.9582408467992
 31
0.0
  0
LINE
  5
1CEC
330
1CB6
100
AcDbEntity
  8
0
 62
     0
100
AcDbLine
 10
171.2025483364208
 20
387.553230157189
 30
0.0
 11
169.9163712655715
 21
388.8394072280383
 31
0.0
  0
LINE
  5
1CED
330
1CB6
100
AcDbEntity
  8
0
 62
     0
100
AcDbLine
 10
171.1419391837477
 20
387.4724179536248
 30
0.0
 11
169.8972679025596
 21
388.7170892348129
 31
0.0
  0
LINE
  5
1CEE
330
1CB6
100
AcDbEntity
  8
0
 62
     0
100
AcDbLine
 10
171.0813300310746
 20
387.3916057500606
 30
0.0
 11
169.8819130121004
 21
388.5910227690349
 31
0.0
  0
LINE
  5
1CEF
330
1CB6
100
AcDbEntity
  8
0
 62
     0
100
AcDbLine
 10
171.0207208784014
 20
387.3107935464964
 30
0.0
 11
169.8706204727258
 21
388.4608939521721
 31
0.0
  0
LINE
  5
1CF0
330
1CB6
100
AcDbEntity
  8
0
 62
     0
100
AcDbLine
 10
170.9601117257284
 20
387.2299813429322
 30
0.0
 11
169.8637675501268
 21
388.3263255185338
 31
0.0
  0
LINE
  5
1CF1
330
1CB6
100
AcDbEntity
  8
0
 62
     0
100
AcDbLine
 10
170.8995025730552
 20
387.1491691393681
 30
0.0
 11
169.8618138050577
 21
388.1868579073655
 31
0.0
  0
LINE
  5
1CF2
330
1CB6
100
AcDbEntity
  8
0
 62
     0
100
AcDbLine
 10
170.8388934203821
 20
387.0683569358039
 30
0.0
 11
169.8653280733806
 21
388.0419222828053
 31
0.0
  0
LINE
  5
1CF3
330
1CB6
100
AcDbEntity
  8
0
 62
     0
100
AcDbLine
 10
170.7782842677089
 20
386.9875447322397
 30
0.0
 11
169.8750281887059
 21
387.8908008112428
 31
0.0
  0
LINE
  5
1CF4
330
1CB6
100
AcDbEntity
  8
0
 62
     0
100
AcDbLine
 10
170.7176751150358
 20
386.9067325286756
 30
0.0
 11
169.8918417026265
 21
387.7325659410848
 31
0.0
  0
LINE
  5
1CF5
330
1CB6
100
AcDbEntity
  8
0
 62
     0
100
AcDbLine
 10
170.6570659623627
 20
386.8259203251114
 30
0.0
 11
169.9170030549241
 21
387.56598323255
 31
0.0
  0
LINE
  5
1CF6
330
1CB6
100
AcDbEntity
  8
0
 62
     0
100
AcDbLine
 10
170.5964568096895
 20
386.7451081215472
 30
0.0
 11
169.9522182433926
 21
387.3893466878442
 31
0.0
  0
LINE
  5
1CF7
330
1CB6
100
AcDbEntity
  8
0
 62
     0
100
AcDbLine
 10
170.5358476570164
 20
386.664295917983
 30
0.0
 11
169.99996526731
 21
387.2001783076894
 31
0.0
  0
LINE
  5
1CF8
330
1CB6
100
AcDbEntity
  8
0
 62
     0
100
AcDbLine
 10
170.4752385043433
 20
386.5834837144189
 30
0.0
 11
170.0640994719326
 21
386.9946227468295
 31
0.0
  0
LINE
  5
1CF9
330
1CB6
100
AcDbEntity
  8
0
 62
     0
100
AcDbLine
 10
170.4146293516701
 20
386.5026715108547
 30
0.0
 11
170.151258902677
 21
386.7660419598477
 31
0.0
  0
LINE
  5
1CFA
330
1CB6
100
AcDbEntity
  8
0
 62
     0
100
AcDbLine
 10
170.354020198997
 20
386.4218593072905
 30
0.0
 11
170.2749448439199
 21
386.5009346623677
 31
0.0
  0
LINE
  5
1CFB
330
1CB6
100
AcDbEntity
  8
0
 62
     0
100
AcDbLine
 10
277.2169495757452
 20
386.4734752459483
 30
0.0
 11
276.8029884341641
 21
386.8874363875294
 31
0.0
  0
LINE
  5
1CFC
330
1CB6
100
AcDbEntity
  8
0
 62
     0
100
AcDbLine
 10
277.2645925922365
 20
386.5672535856944
 30
0.0
 11
276.3787243654521
 21
387.4531218124787
 31
0.0
  0
LINE
  5
1CFD
330
1CB6
100
AcDbEntity
  8
0
 62
     0
100
AcDbLine
 10
277.3099902952822
 20
386.6632772388859
 30
0.0
 11
275.9544602967403
 21
388.0188072374278
 31
0.0
  0
LINE
  5
1CFE
330
1CB6
100
AcDbEntity
  8
0
 62
     0
100
AcDbLine
 10
277.3530726654746
 20
386.7616162249309
 30
0.0
 11
275.5301962280282
 21
388.5844926623772
 31
0.0
  0
LINE
  5
1CFF
330
1CB6
100
AcDbEntity
  8
0
 62
     0
100
AcDbLine
 10
277.3937599119951
 20
386.8623503346476
 30
0.0
 11
275.1059321593165
 21
389.1501780873262
 31
0.0
  0
LINE
  5
1D00
330
1CB6
100
AcDbEntity
  8
0
 62
     0
100
AcDbLine
 10
277.4319611099589
 20
386.9655704929212
 30
0.0
 11
274.6816680906045
 21
389.7158635122756
 31
0.0
  0
LINE
  5
1D01
330
1CB6
100
AcDbEntity
  8
0
 62
     0
100
AcDbLine
 10
277.4675725338355
 20
387.0713804252818
 30
0.0
 11
274.2574040218924
 21
390.2815489372249
 31
0.0
  0
LINE
  5
1D02
330
1CB6
100
AcDbEntity
  8
0
 62
     0
100
AcDbLine
 10
277.5004756050543
 20
387.1798987103004
 30
0.0
 11
273.8331399531807
 21
390.8472343621739
 31
0.0
  0
LINE
  5
1D03
330
1CB6
100
AcDbEntity
  8
0
 62
     0
100
AcDbLine
 10
277.5305343436827
 20
387.2912613279093
 30
0.0
 11
273.4088758844687
 21
391.4129197871233
 31
0.0
  0
LINE
  5
1D04
330
1CB6
100
AcDbEntity
  8
0
 62
     0
100
AcDbLine
 10
277.5575921740794
 20
387.4056248537499
 30
0.0
 11
273.126881905124
 21
391.8363351227053
 31
0.0
  0
LINE
  5
1D05
330
1CB6
100
AcDbEntity
  8
0
 62
     0
100
AcDbLine
 10
277.5814678767393
 20
387.5231705073273
 30
0.0
 11
273.2444275587014
 21
391.8602108253652
 31
0.0
  0
LINE
  5
1D06
330
1CB6
100
AcDbEntity
  8
0
 62
     0
100
AcDbLine
 10
277.60195039372
 20
387.644109346584
 30
0.0
 11
273.365366397958
 21
391.8806933423459
 31
0.0
  0
LINE
  5
1D07
330
1CB6
100
AcDbEntity
  8
0
 62
     0
100
AcDbLine
 10
277.618792067557
 20
387.7686890289843
 30
0.0
 11
273.4899460803584
 21
391.8975350161829
 31
0.0
  0
LINE
  5
1D08
330
1CB6
100
AcDbEntity
  8
0
 62
     0
100
AcDbLine
 10
277.6316996973366
 20
387.8972027554419
 30
0.0
 11
273.618459806816
 21
391.9104426459625
 31
0.0
  0
LINE
  5
1D09
330
1CB6
100
AcDbEntity
  8
0
 62
     0
100
AcDbLine
 10
277.6403224851972
 20
388.0300013238186
 30
0.0
 11
273.7512583751926
 21
391.9190654338231
 31
0.0
  0
LINE
  5
1D0A
330
1CB6
100
AcDbEntity
  8
0
 62
     0
100
AcDbLine
 10
277.6442354402004
 20
388.1675097250528
 30
0.0
 11
273.8887667764268
 21
391.9229783888263
 31
0.0
  0
LINE
  5
1D0B
330
1CB6
100
AcDbEntity
  8
0
 62
     0
100
AcDbLine
 10
277.6429159508405
 20
388.31025057065
 30
0.0
 11
274.0315076220241
 21
391.9216588994664
 31
0.0
  0
LINE
  5
1D0C
330
1CB6
100
AcDbEntity
  8
0
 62
     0
100
AcDbLine
 10
277.6357097308474
 20
388.4588781468804
 30
0.0
 11
274.1801351982545
 21
391.9144526794733
 31
0.0
  0
LINE
  5
1D0D
330
1CB6
100
AcDbEntity
  8
0
 62
     0
100
AcDbLine
 10
277.6217795590887
 20
388.6142296748764
 30
0.0
 11
274.3354867262504
 21
391.9005225077146
 31
0.0
  0
LINE
  5
1D0E
330
1CB6
100
AcDbEntity
  8
0
 62
     0
100
AcDbLine
 10
277.600024785399
 20
388.7774058048034
 30
0.0
 11
274.4986628561775
 21
391.8787677340248
 31
0.0
  0
LINE
  5
1D0F
330
1CB6
100
AcDbEntity
  8
0
 62
     0
100
AcDbLine
 10
277.5689481327603
 20
388.9499038136794
 30
0.0
 11
274.6711608650535
 21
391.8476910813862
 31
0.0
  0
LINE
  5
1D10
330
1CB6
100
AcDbEntity
  8
0
 62
     0
100
AcDbLine
 10
277.5264200989405
 20
389.1338532037364
 30
0.0
 11
274.8551102551106
 21
391.8051630475665
 31
0.0
  0
LINE
  5
1D11
330
1CB6
100
AcDbEntity
  8
0
 62
     0
100
AcDbLine
 10
277.4692239160621
 20
389.3324707428523
 30
0.0
 11
275.0537277942263
 21
391.747966864688
 31
0.0
  0
LINE
  5
1D12
330
1CB6
100
AcDbEntity
  8
0
 62
     0
100
AcDbLine
 10
277.3920623216767
 20
389.551053693475
 30
0.0
 11
275.2723107448491
 21
391.6708052703025
 31
0.0
  0
LINE
  5
1D13
330
1CB6
100
AcDbEntity
  8
0
 62
     0
100
AcDbLine
 10
277.2849504949652
 20
389.7995868764238
 30
0.0
 11
275.5208439277978
 21
391.5636934435911
 31
0.0
  0
LINE
  5
1D14
330
1CB6
100
AcDbEntity
  8
0
 62
     0
100
AcDbLine
 10
277.1237611816518
 20
390.1021975459745
 30
0.0
 11
275.8234545973485
 21
391.4025041302777
 31
0.0
  0
LINE
  5
1D15
330
1CB6
100
AcDbEntity
  8
0
 62
     0
100
AcDbLine
 10
276.7838610722197
 20
390.5835190116439
 30
0.0
 11
276.304776063018
 21
391.0626040208456
 31
0.0
  0
ENDBLK
  5
1D16
330
1CB6
100
AcDbEntity
  8
0
100
AcDbBlockEnd
  0
BLOCK
  5
1E35
330
1E2A
100
AcDbEntity
  8
0
100
AcDbBlockBegin
  2
*D4
 70
     1
 10
0.0
 20
0.0
 30
0.0
  3
*D4
  1

  0
LINE
  5
209A
330
1E2A
100
AcDbEntity
  8
BEM
 62
     0
370
    -2
100
AcDbLine
 10
158.4999999999999
 20
272.5964366188787
 30
0.0
 11
158.4999999999999
 21
236.8826569716661
 31
0.0
  0
LINE
  5
209B
330
1E2A
100
AcDbEntity
  8
BEM
 62
     0
370
    -2
100
AcDbLine
 10
291.5
 20
272.5964366188786
 30
0.0
 11
291.5
 21
236.8826569716661
 31
0.0
  0
LINE
  5
209C
330
1E2A
100
AcDbEntity
  8
BEM
 62
     0
370
    -2
100
AcDbLine
 10
165.4999999999999
 20
238.8826569716661
 30
0.0
 11
284.5
 21
238.8826569716661
 31
0.0
  0
SOLID
  5
209D
330
1E2A
100
AcDbEntity
  8
BEM
 62
     0
100
AcDbTrace
 10
165.4999999999999
 20
240.0493236383328
 30
0.0
 11
165.4999999999999
 21
237.7159903049995
 31
0.0
 12
158.4999999999999
 22
238.8826569716661
 32
0.0
 13
158.4999999999999
 23
238.8826569716661
 33
0.0
  0
SOLID
  5
209E
330
1E2A
100
AcDbEntity
  8
BEM
 62
     0
100
AcDbTrace
 10
284.5
 20
240.0493236383328
 30
0.0
 11
284.5
 21
237.7159903049995
 31
0.0
 12
291.5
 22
238.8826569716661
 32
0.0
 13
291.5
 23
238.8826569716661
 33
0.0
  0
MTEXT
  5
209F
330
1E2A
100
AcDbEntity
  8
BEM
 62
     1
100
AcDbMText
 10
225.0
 20
245.3826569716661
 30
0.0
 40
7.0
 41
0.0
 71
     5
 72
     1
  1
\A1;%%C133
 73
     1
 44
1.0
  0
POINT
  5
20A0
330
1E2A
100
AcDbEntity
  8
DEFPOINTS
 62
     0
100
AcDbPoint
 10
158.4999999999999
 20
274.5964366188787
 30
0.0
  0
POINT
  5
20A1
330
1E2A
100
AcDbEntity
  8
DEFPOINTS
 62
     0
100
AcDbPoint
 10
291.5
 20
274.5964366188786
 30
0.0
  0
POINT
  5
20A2
330
1E2A
100
AcDbEntity
  8
DEFPOINTS
 62
     0
100
AcDbPoint
 10
291.5
 20
238.8826569716661
 30
0.0
  0
ENDBLK
  5
1E36
330
1E2A
100
AcDbEntity
  8
0
100
AcDbBlockEnd
  0
BLOCK
  5
1E69
330
1E5E
100
AcDbEntity
  8
0
100
AcDbBlockBegin
  2
*D7
 70
     1
 10
0.0
 20
0.0
 30
0.0
  3
*D7
  1

  0
LINE
  5
207F
330
1E5E
100
AcDbEntity
  8
BEM
 62
     0
370
    -2
100
AcDbLine
 10
157.8123299528888
 20
265.0407206153691
 30
0.0
 11
142.8869499385144
 21
265.0407206153691
 31
0.0
  0
LINE
  5
2080
330
1E5E
100
AcDbEntity
  8
BEM
 62
     0
370
    -2
100
AcDbLine
 10
157.1862915010151
 20
365.0407206153691
 30
0.0
 11
142.8869499385144
 21
365.0407206153691
 31
0.0
  0
LINE
  5
2081
330
1E5E
100
AcDbEntity
  8
BEM
 62
     0
370
    -2
100
AcDbLine
 10
144.8869499385144
 20
272.0407206153691
 30
0.0
 11
144.8869499385144
 21
358.0407206153691
 31
0.0
  0
SOLID
  5
2082
330
1E5E
100
AcDbEntity
  8
BEM
 62
     0
100
AcDbTrace
 10
143.7202832718477
 20
272.0407206153691
 30
0.0
 11
146.053616605181
 21
272.0407206153691
 31
0.0
 12
144.8869499385144
 22
265.0407206153691
 32
0.0
 13
144.8869499385144
 23
265.0407206153691
 33
0.0
  0
SOLID
  5
2083
330
1E5E
100
AcDbEntity
  8
BEM
 62
     0
100
AcDbTrace
 10
143.7202832718477
 20
358.0407206153691
 30
0.0
 11
146.053616605181
 21
358.0407206153691
 31
0.0
 12
144.8869499385144
 22
365.0407206153691
 32
0.0
 13
144.8869499385144
 23
365.0407206153691
 33
0.0
  0
MTEXT
  5
2084
330
1E5E
100
AcDbEntity
  8
BEM
 62
     1
100
AcDbMText
 10
138.3869499385143
 20
315.0407206153691
 30
0.0
 40
7.0
 41
0.0
 71
     5
 72
     1
  1
\A1;100
 11
0.0000000000000001
 21
1.0
 31
0.0
 73
     1
 44
1.0
  0
POINT
  5
2085
330
1E5E
100
AcDbEntity
  8
DEFPOINTS
 62
     0
100
AcDbPoint
 10
159.8123299528888
 20
265.0407206153691
 30
0.0
  0
POINT
  5
2086
330
1E5E
100
AcDbEntity
  8
DEFPOINTS
 62
     0
100
AcDbPoint
 10
159.1862915010151
 20
365.0407206153691
 30
0.0
  0
POINT
  5
2087
330
1E5E
100
AcDbEntity
  8
DEFPOINTS
 62
     0
100
AcDbPoint
 10
144.8869499385144
 20
365.0407206153691
 30
0.0
  0
ENDBLK
  5
1E6A
330
1E5E
100
AcDbEntity
  8
0
100
AcDbBlockEnd
  0
BLOCK
  5
201C
330
2012
100
AcDbEntity
  8
0
100
AcDbBlockBegin
  2
*D11
 70
     1
 10
0.0
 20
0.0
 30
0.0
  3
*D11
  1

  0
LINE
  5
20D7
330
2012
100
AcDbEntity
  8
BEM
 62
     0
370
    -2
100
AcDbLine
 10
183.2346026717247
 20
480.040720615369
 30
0.0
 11
125.4087257346207
 21
480.0407206153691
 31
0.0
  0
LINE
  5
20D8
330
2012
100
AcDbEntity
  8
BEM
 62
     0
370
    -2
100
AcDbLine
 10
157.8123299528888
 20
265.0407206153691
 30
0.0
 11
125.4087257346206
 21
265.0407206153691
 31
0.0
  0
LINE
  5
20D9
330
2012
100
AcDbEntity
  8
BEM
 62
     0
370
    -2
100
AcDbLine
 10
127.4087257346207
 20
473.0407206153691
 30
0.0
 11
127.4087257346206
 21
272.0407206153691
 31
0.0
  0
SOLID
  5
20DA
330
2012
100
AcDbEntity
  8
BEM
 62
     0
100
AcDbTrace
 10
126.242059067954
 20
473.0407206153691
 30
0.0
 11
128.5753924012873
 21
473.040720615369
 31
0.0
 12
127.4087257346207
 22
480.0407206153691
 32
0.0
 13
127.4087257346207
 23
480.0407206153691
 33
0.0
  0
SOLID
  5
20DB
330
2012
100
AcDbEntity
  8
BEM
 62
     0
100
AcDbTrace
 10
126.242059067954
 20
272.0407206153691
 30
0.0
 11
128.5753924012873
 21
272.0407206153691
 31
0.0
 12
127.4087257346206
 22
265.0407206153691
 32
0.0
 13
127.4087257346206
 23
265.0407206153691
 33
0.0
  0
MTEXT
  5
20DC
330
2012
100
AcDbEntity
  8
BEM
 62
     1
100
AcDbMText
 10
120.9087257346206
 20
372.5407206153691
 30
0.0
 40
7.0
 41
0.0
 71
     5
 72
     1
  1
\A1;215
 11
0.0000000000000001
 21
1.0
 31
0.0
 73
     1
 44
1.0
  0
POINT
  5
20DD
330
2012
100
AcDbEntity
  8
DEFPOINTS
 62
     0
100
AcDbPoint
 10
185.2346026717247
 20
480.040720615369
 30
0.0
  0
POINT
  5
20DE
330
2012
100
AcDbEntity
  8
DEFPOINTS
 62
     0
100
AcDbPoint
 10
159.8123299528888
 20
265.0407206153691
 30
0.0
  0
POINT
  5
20DF
330
2012
100
AcDbEntity
  8
DEFPOINTS
 62
     0
100
AcDbPoint
 10
127.4087257346206
 20
265.0407206153691
 30
0.0
  0
ENDBLK
  5
201D
330
2012
100
AcDbEntity
  8
0
100
AcDbBlockEnd
  0
BLOCK
  5
203B
330
2031
100
AcDbEntity
  8
0
100
AcDbBlockBegin
  2
*D12
 70
     1
 10
0.0
 20
0.0
 30
0.0
  3
*D12
  1

  0
LINE
  5
2051
330
2031
100
AcDbEntity
  8
BEM
 62
     0
370
    -2
100
AcDbLine
 10
188.4999999999999
 20
411.7207541164181
 30
0.0
 11
188.4999999999999
 21
407.2322122079255
 31
0.0
  0
LINE
  5
2052
330
2031
100
AcDbEntity
  8
BEM
 62
     0
370
    -2
100
AcDbLine
 10
261.4999999999999
 20
411.7207541164181
 30
0.0
 11
261.4999999999999
 21
407.2322122079255
 31
0.0
  0
LINE
  5
2053
330
2031
100
AcDbEntity
  8
BEM
 62
     0
370
    -2
100
AcDbLine
 10
195.4999999999999
 20
409.2322122079256
 30
0.0
 11
254.4999999999999
 21
409.2322122079256
 31
0.0
  0
SOLID
  5
2054
330
2031
100
AcDbEntity
  8
BEM
 62
     0
100
AcDbTrace
 10
195.4999999999999
 20
410.3988788745922
 30
0.0
 11
195.4999999999999
 21
408.0655455412589
 31
0.0
 12
188.4999999999999
 22
409.2322122079256
 32
0.0
 13
188.4999999999999
 23
409.2322122079256
 33
0.0
  0
SOLID
  5
2055
330
2031
100
AcDbEntity
  8
BEM
 62
     0
100
AcDbTrace
 10
254.4999999999999
 20
410.3988788745922
 30
0.0
 11
254.4999999999999
 21
408.0655455412589
 31
0.0
 12
261.4999999999999
 22
409.2322122079256
 32
0.0
 13
261.4999999999999
 23
409.2322122079256
 33
0.0
  0
MTEXT
  5
2056
330
2031
100
AcDbEntity
  8
BEM
 62
     1
100
AcDbMText
 10
225.0
 20
415.7322122079255
 30
0.0
 40
7.0
 41
0.0
 71
     5
 72
     1
  1
\A1;%%c73
 73
     1
 44
1.0
  0
POINT
  5
2057
330
2031
100
AcDbEntity
  8
DEFPOINTS
 62
     0
100
AcDbPoint
 10
188.4999999999999
 20
413.7207541164181
 30
0.0
  0
POINT
  5
2058
330
2031
100
AcDbEntity
  8
DEFPOINTS
 62
     0
100
AcDbPoint
 10
261.4999999999999
 20
413.7207541164181
 30
0.0
  0
POINT
  5
2059
330
2031
100
AcDbEntity
  8
DEFPOINTS
 62
     0
100
AcDbPoint
 10
261.4999999999999
 20
409.2322122079256
 30
0.0
  0
ENDBLK
  5
203C
330
2031
100
AcDbEntity
  8
0
100
AcDbBlockEnd
  0
ENDSEC
  0
SECTION
  2
ENTITIES
  0
LINE
  5
57
330
1E
100
AcDbEntity
  8
STEMPEL
100
AcDbLine
 10
410.0
 20
110.0
 30
0.0
 11
39.99999999999997
 21
110.0
 31
0.0
  0
LINE
  5
58
330
1E
100
AcDbEntity
  8
STEMPEL
100
AcDbLine
 10
136.0000000000001
 20
109.9999999999999
 30
0.0
 11
136.0
 21
9.999999999999971
 31
0.0
  0
LINE
  5
59
330
1E
100
AcDbEntity
  8
STEMPEL
100
AcDbLine
 10
220.0
 20
110.0
 30
0.0
 11
220.0
 21
9.999999999999971
 31
0.0
  0
LINE
  5
5A
330
1E
100
AcDbEntity
  8
STEMPEL
100
AcDbLine
 10
332.0
 20
109.9999999999997
 30
0.0
 11
332.0
 21
40.0
 31
0.0
  0
LINE
  5
5B
330
1E
100
AcDbEntity
  8
STEMPEL
100
AcDbLine
 10
135.9999999999999
 20
29.99999999999997
 30
0.0
 11
39.99999999999997
 21
29.99999999999997
 31
0.0
  0
LINE
  5
5C
330
1E
100
AcDbEntity
  8
STEMPEL
100
AcDbLine
 10
410.0
 20
40.0
 30
0.0
 11
136.0000000000001
 21
39.99999999999997
 31
0.0
  0
LINE
  5
5D
330
1E
100
AcDbEntity
  8
STEMPEL
100
AcDbLine
 10
410.0
 20
80.0
 30
0.0
 11
136.0000000000001
 21
79.99999999999994
 31
0.0
  0
LINE
  5
5E
330
1E
100
AcDbEntity
  8
VOLL
100
AcDbLine
 10
54.00000000000009
 20
110.0
 30
0.0
 11
53.99999999999997
 21
9.999999999999971
 31
0.0
  0
LINE
  5
5F
330
1E
100
AcDbEntity
  8
VOLL
100
AcDbLine
 10
94.00000000000011
 20
109.9999999999999
 30
0.0
 11
94.0
 21
9.999999999999971
 31
0.0
  0
LINE
  5
60
330
1E
100
AcDbEntity
  8
VOLL
100
AcDbLine
 10
114.0000000000001
 20
109.9999999999999
 30
0.0
 11
114.0
 21
9.999999999999971
 31
0.0
  0
LINE
  5
61
330
1E
100
AcDbEntity
  8
VOLL
100
AcDbLine
 10
154.0000000000001
 20
79.99999999999994
 30
0.0
 11
154.0000000000001
 21
39.99999999999997
 31
0.0
  0
LINE
  5
62
330
1E
100
AcDbEntity
  8
VOLL
100
AcDbLine
 10
180.0000000000001
 20
109.9999999999998
 30
0.0
 11
180.0
 21
39.99999999999997
 31
0.0
  0
LINE
  5
63
330
1E
100
AcDbEntity
  8
HILF
100
AcDbLine
 10
40.00000000000008
 20
100.0
 30
0.0
 11
136.0000000000001
 21
100.0
 31
0.0
  0
LINE
  5
64
330
1E
100
AcDbEntity
  8
HILF
100
AcDbLine
 10
40.00000000000008
 20
90.00000000000005
 30
0.0
 11
136.0000000000001
 21
90.00000000000005
 31
0.0
  0
LINE
  5
65
330
1E
100
AcDbEntity
  8
HILF
100
AcDbLine
 10
40.00000000000008
 20
79.99999999999994
 30
0.0
 11
136.0000000000001
 21
79.99999999999994
 31
0.0
  0
LINE
  5
66
330
1E
100
AcDbEntity
  8
HILF
100
AcDbLine
 10
40.00000000000008
 20
69.99999999999994
 30
0.0
 11
136.0000000000001
 21
69.99999999999994
 31
0.0
  0
LINE
  5
67
330
1E
100
AcDbEntity
  8
HILF
100
AcDbLine
 10
40.00000000000008
 20
59.99999999999997
 30
0.0
 11
136.0000000000001
 21
59.99999999999997
 31
0.0
  0
LINE
  5
68
330
1E
100
AcDbEntity
  8
HILF
100
AcDbLine
 10
40.00000000000008
 20
49.99999999999997
 30
0.0
 11
136.0000000000001
 21
49.99999999999997
 31
0.0
  0
LINE
  5
69
330
1E
100
AcDbEntity
  8
HILF
100
AcDbLine
 10
40.00000000000008
 20
39.99999999999997
 30
0.0
 11
136.0000000000001
 21
39.99999999999997
 31
0.0
  0
LINE
  5
6A
330
1E
100
AcDbEntity
  8
HILF
100
AcDbLine
 10
136.0000000000001
 20
69.99999999999994
 30
0.0
 11
220.0
 21
69.99999999999994
 31
0.0
  0
LINE
  5
6B
330
1E
100
AcDbEntity
  8
HILF
100
AcDbLine
 10
136.0000000000001
 20
59.99999999999997
 30
0.0
 11
220.0
 21
59.99999999999997
 31
0.0
  0
LINE
  5
6C
330
1E
100
AcDbEntity
  8
HILF
100
AcDbLine
 10
136.0000000000001
 20
49.99999999999997
 30
0.0
 11
220.0
 21
49.99999999999997
 31
0.0
  0
LINE
  5
6D
330
1E
100
AcDbEntity
  8
HILF
100
AcDbLine
 10
224.7736801096948
 20
84.03758247564139
 30
0.0
 11
324.8353916556311
 21
84.03758247564139
 31
0.0
  0
LINE
  5
6E
330
1E
100
AcDbEntity
  8
HILF
100
AcDbLine
 10
224.7736801096948
 20
69.99999999999994
 30
0.0
 11
324.835391655631
 21
69.99999999999994
 31
0.0
  0
LINE
  5
6F
330
1E
100
AcDbEntity
  8
HILF
100
AcDbLine
 10
224.7736801096948
 20
59.99999999999997
 30
0.0
 11
324.835391655631
 21
59.99999999999997
 31
0.0
  0
LINE
  5
70
330
1E
100
AcDbEntity
  8
HILF
100
AcDbLine
 10
224.7736801096948
 20
49.99999999999997
 30
0.0
 11
324.835391655631
 21
49.99999999999997
 31
0.0
  0
LINE
  5
71
330
1E
100
AcDbEntity
  8
VOLL
100
AcDbLine
 10
332.0
 20
60.0
 30
0.0
 11
410.0
 21
60.0
 31
0.0
  0
LINE
  5
72
330
1E
100
AcDbEntity
  8
HILF
100
AcDbLine
 10
336.7238616296993
 20
83.77983636955827
 30
0.0
 11
404.8588839326728
 21
83.77983636955827
 31
0.0
  0
LINE
  5
73
330
1E
100
AcDbEntity
  8
HILF
100
AcDbLine
 10
223.4909699289885
 20
14.89398258028314
 30
0.0
 11
404.8588839326728
 21
14.89398258028314
 31
0.0
  0
TEXT
  5
74
330
1E
100
AcDbEntity
  8
TEXT
100
AcDbText
 10
63.86165979631819
 20
18.67381894984132
 30
0.0
 40
4.0
  1
Änderung
 41
0.8
  7
GREEKS
 72
     1
 11
74.60451693917534
 21
18.67381894984132
 31
0.0
100
AcDbText
  0
TEXT
  5
75
330
1E
100
AcDbEntity
  8
TEXT
100
AcDbText
 10
143.5163572150377
 20
102.4620895087088
 30
0.0
 40
5.0
  1
Maßstab
 41
0.8
  7
GREEKS
100
AcDbText
  0
TEXT
  5
76
330
1E
100
AcDbEntity
  8
TEXT
100
AcDbText
 10
184.2858954734051
 20
102.4184168434819
 30
0.0
 40
5.0
  1
Zul. Abw.
 41
0.8
  7
GREEKS
100
AcDbText
  0
TEXT
  5
77
330
1E
100
AcDbEntity
  8
TEXT
100
AcDbText
 10
224.877940380901
 20
102.5489328011779
 30
0.0
 40
5.0
  1
Benennung
 41
0.8
  7
GREEKS
100
AcDbText
  0
TEXT
  5
78
330
1E
100
AcDbEntity
  8
TEXT
100
AcDbText
 10
336.178754957634
 20
102.3132034537136
 30
0.0
 40
5.0
  1
Zeichnungs Nr.
 41
0.8
  7
GREEKS
100
AcDbText
  0
TEXT
  5
79
330
1E
100
AcDbEntity
  8
TEXT
100
AcDbText
 10
224.742238391136
 20
30.84560570193057
 30
0.0
 40
5.0
  1
Bauvorhaben
 41
0.8
  7
GREEKS
100
AcDbText
  0
TEXT
  5
7A
330
1E
100
AcDbEntity
  8
TEXT
100
AcDbText
 10
336.7238616296993
 20
73.1811823709997
 30
0.0
 40
5.0
  1
Ersatz für:
 41
0.8
  7
GREEKS
100
AcDbText
  0
TEXT
  5
7B
330
1E
100
AcDbEntity
  8
TEXT
100
AcDbText
 10
48.26641107045756
 20
13.65465846027192
 30
0.0
 40
4.0
  1
Index
 50
90.0
 41
0.8
  7
GREEKS
100
AcDbText
  0
TEXT
  5
7C
330
1E
100
AcDbEntity
  8
TEXT
100
AcDbText
 10
100.0934676075481
 20
18.6715626933981
 30
0.0
 40
4.0
  1
Tag
 41
0.8
  7
GREEKS
 72
     1
 11
103.8268009408814
 21
18.6715626933981
 31
0.0
100
AcDbText
  0
TEXT
  5
7D
330
1E
100
AcDbEntity
  8
TEXT
100
AcDbText
 10
119.0122744386592
 20
18.59324216966408
 30
0.0
 40
4.0
  1
Name
 41
0.8
  7
GREEKS
 72
     1
 11
125.3360839624688
 21
18.59324216966408
 31
0.0
100
AcDbText
  0
TEXT
  5
7E
330
1E
100
AcDbEntity
  8
TEXT
100
AcDbText
 10
162.3311673153651
 20
73.31880501229926
 30
0.0
 40
4.0
  1
Tag
 41
0.8
  7
GREEKS
100
AcDbText
  0
TEXT
  5
7F
330
1E
100
AcDbEntity
  8
TEXT
100
AcDbText
 10
192.4626584226295
 20
73.30961091915225
 30
0.0
 40
4.0
  1
Name
 41
0.8
  7
GREEKS
100
AcDbText
  0
TEXT
  5
80
330
1E
100
AcDbEntity
  8
TEXT
100
AcDbText
 10
137.5836127167615
 20
63.62990369617964
 30
0.0
 40
4.0
  1
Gez.
 41
0.8
  7
GREEKS
100
AcDbText
  0
TEXT
  5
81
330
1E
100
AcDbEntity
  8
TEXT
100
AcDbText
 10
137.5515086571672
 20
53.68926291428377
 30
0.0
 40
4.0
  1
Gepr.
 41
0.8
  7
GREEKS
100
AcDbText
  0
TEXT
  5
82
330
1E
100
AcDbEntity
  8
TEXT
100
AcDbText
 10
137.6006777387304
 20
43.52946389649807
 30
0.0
 40
4.0
  1
Norm.
 41
0.8
  7
GREEKS
100
AcDbText
  0
LINE
  5
83
330
1E
100
AcDbEntity
  8
STEMPEL
100
AcDbLine
 10
49.99999999999989
 20
10.0
 30
0.0
 11
410.0
 21
10.0
 31
0.0
  0
TEXT
  5
84
330
1E
100
AcDbEntity
  8
TEXT
100
AcDbText
 10
337.2400861497006
 20
52.07416177878602
 30
0.0
 40
5.0
  1
ersetzt durch:
 41
0.8
  7
GREEKS
100
AcDbText
  0
LINE
  5
85
330
1E
100
AcDbEntity
  8
STEMPEL
100
AcDbLine
 10
410.0
 20
10.0
 30
0.0
 11
39.99999999999989
 21
10.0
 31
0.0
  0
LINE
  5
86
330
1E
100
AcDbEntity
  8
STEMPEL
100
AcDbLine
 10
410.0
 20
10.0
 30
0.0
 11
410.0
 21
584.0
 31
0.0
  0
LINE
  5
87
330
1E
100
AcDbEntity
  8
STEMPEL
100
AcDbLine
 10
40.0
 20
10.0
 30
0.0
 11
39.99999999999989
 21
584.0
 31
0.0
  0
LINE
  5
88
330
1E
100
AcDbEntity
  8
STEMPEL
100
AcDbLine
 10
410.0
 20
584.0
 30
0.0
 11
39.99999999999989
 21
584.0
 31
0.0
  0
LINE
  5
89
330
1E
100
AcDbEntity
  8
HILF
100
AcDbLine
 10
0.0
 20
0.0
 30
0.0
 11
-0.0000000000001137
 21
594.0
 31
0.0
  0
LINE
  5
8A
330
1E
100
AcDbEntity
  8
HILF
100
AcDbLine
 10
419.9999999999999
 20
594.0000000000002
 30
0.0
 11
0.0
 21
594.0
 31
0.0
  0
LINE
  5
8B
330
1E
100
AcDbEntity
  8
HILF
100
AcDbLine
 10
420.0
 20
0.0
 30
0.0
 11
0.0
 21
0.0
 31
0.0
  0
LINE
  5
8C
330
1E
100
AcDbEntity
  8
HILF
100
AcDbLine
 10
31.08767135713856
 20
297.0
 30
0.0
 11
0.0000000000001137
 21
297.0
 31
0.0
  0
TEXT
  5
8D
330
1E
100
AcDbEntity
  8
TEXT
100
AcDbText
 10
138.622109822104
 20
73.14025471151666
 30
0.0
 40
4.0
  1
2011
 41
0.8
  7
GREEKS
100
AcDbText
  0
LINE
  5
8E
330
1E
100
AcDbEntity
  8
HILF
100
AcDbLine
 10
420.0
 20
-0.0000000000001137
 30
0.0
 11
419.9999999999999
 21
594.0
 31
0.0
  0
TEXT
  5
8F
330
1E
100
AcDbEntity
  8
VOLL
100
AcDbText
 10
78.07675471698113
 20
31.02594776470585
 30
0.0
 40
1.8
  1

  7
GREEKS
100
AcDbText
  0
TEXT
  5
90
330
1E
100
AcDbEntity
  8
TEXT
100
AcDbText
 10
41.85509950977674
 20
111.6719999999999
 30
0.0
 40
5.0
  1
Erstellt mit AUTOCAD 2004
 41
0.8
  7
GREEKS
100
AcDbText
  0
TEXT
  5
91
330
1E
100
AcDbEntity
  8
TEXT
100
AcDbText
 10
194.4216048581257
 20
63.0896391972351
 30
0.0
 40
4.0
  1
Koeh
 41
0.8
  7
GREEKS
 72
     1
 11
199.6787477152685
 21
63.0896391972351
 31
0.0
100
AcDbText
  0
TEXT
  5
92
330
1E
100
AcDbEntity
  8
TEXT
 62
     1
100
AcDbText
 10
347.1516896065724
 20
88.14901428913959
 30
0.0
 40
7.0
  1
00600CE0W
 41
0.8
  7
GREEKS
 72
     1
 11
371.1516896065724
 21
88.14901428913959
 31
0.0
100
AcDbText
  0
TEXT
  5
93
330
1E
100
AcDbEntity
  8
TEXT
 62
     1
100
AcDbText
 10
150.5006306481887
 20
88.14901428913959
 30
0.0
 40
7.0
  1
1:2
 41
0.8
  7
GREEKS
100
AcDbText
  0
TEXT
  5
94
330
1E
100
AcDbEntity
  8
TEXT
100
AcDbText
 10
160.398997108236
 20
63.10765040825732
 30
0.0
 40
4.0
  1
04.04.
 41
0.8
  7
GREEKS
 72
     1
 11
167.4085209177598
 21
63.10765040825732
 31
0.0
100
AcDbText
  0
TEXT
  5
95
330
1E
100
AcDbEntity
  8
TEXT
 62
     1
100
AcDbText
 10
224.2909241008022
 20
87.41748789253779
 30
0.0
 40
7.0
  1
Übergangsrohr DN70/125
 41
0.75
  7
GREEKS
100
AcDbText
  0
TEXT
  5
96
330
1E
100
AcDbEntity
  8
TEXT
100
AcDbText
 10
225.1296391125315
 20
71.50334417585288
 30
0.0
 40
5.0
  1
konzentrisches Red.-Stück
 41
0.8
  7
GREEKS
100
AcDbText
  0
TEXT
  5
98
330
1E
100
AcDbEntity
  8
TEXT
100
AcDbText
 10
225.1296391125315
 20
51.64011943042158
 30
0.0
 40
5.0
  1
EDV-Art.Nr. 00600.CE0X
 41
0.8
  7
GREEKS
100
AcDbText
  0
TEXT
  5
99
330
1E
100
AcDbEntity
  8
TEXT
100
AcDbText
 10
224.9837501577827
 20
42.62974153022632
 30
0.0
 40
4.0
  1
00600CE0W.DWG
 41
0.8
  7
GREEKS
100
AcDbText
  0
TEXT
  5
9A
330
1E
100
AcDbEntity
  8
TEXT
100
AcDbText
 10
182.626132208084
 20
90.76363841023022
 30
0.0
 40
4.0
  1
DIN EN1123-2
 41
0.8
  7
GREEKS
 72
     1
 11
199.6166083985602
 21
90.76363841023022
 31
0.0
100
AcDbText
  0
INSERT
  5
9B
330
1E
100
AcDbEntity
  8
STEMPEL
100
AcDbBlockReference
  2
LOGO
 10
140.9955485457794
 20
45.02105276448322
 30
0.0
 41
2.0
 42
2.0
 43
2.0
  0
TEXT
  5
118
330
1E
100
AcDbEntity
  8
BEM
100
AcDbText
 10
417.3022923857165
 20
10.16790107998849
 30
0.0
 40
4.0
  1
Diese Zeichnung ist urheberrechtlich geschützt und bleibt unser Eigentum. Sie darf weder ganz noch teilweise verfielfältigt und nicht an Dritte weitergegeben werden.
 50
90.0
 41
0.8
  7
GREEKS
100
AcDbText
  0
TEXT
  5
1CA
330
1E
100
AcDbEntity
  8
TEXT
 62
     1
100
AcDbText
 10
217.2387570698602
 20
454.6743830598078
 30
0.0
 40
7.0
  1
DN70
 50
90.0
 41
0.8
  7
GREEKS
100
AcDbText
  0
TEXT
  5
2B5
330
1E
100
AcDbEntity
  8
TEXT
 62
     1
100
AcDbText
 10
55.87395933336921
 20
155.3929853351618
 30
0.0
 40
7.0
  1
Rohrende leicht eingezogen
 41
0.8
  7
GREEKS
100
AcDbText
  0
TEXT
  5
31C
330
1E
100
AcDbEntity
  8
TEXT
 62
     1
100
AcDbText
 10
217.2387570698602
 20
305.7948093633434
 30
0.0
 40
7.0
  1
DN125
 50
90.0
 41
0.8
  7
GREEKS
100
AcDbText
  0
TEXT
  5
3CA
330
1E
100
AcDbEntity
  8
TEXT
 62
     1
100
AcDbText
 10
274.6057658946467
 20
129.0783465745483
 30
0.0
 40
7.0
  1
und innen beschichtet
 41
0.8
  7
GREEKS
100
AcDbText
  0
TEXT
  5
3CB
330
1E
100
AcDbEntity
  8
TEXT
 62
     1
100
AcDbText
 10
226.6560484572488
 20
139.8004583895517
 30
0.0
 40
7.0
  1
Werkstoff: E195 EN10305 feuerverzinkt
 41
0.8
  7
GREEKS
100
AcDbText
  0
DIMENSION
  5
1DA9
330
1E
100
AcDbEntity
  8
BEM
100
AcDbDimension
  2
*D4
 10
291.5
 20
238.8826569716661
 30
0.0
 11
225.0
 21
245.3826569716661
 31
0.0
 70
    32
  1
%%C<>
 71
     5
 42
133.0
  3
Standard
100
AcDbAlignedDimension
 13
158.4999999999999
 23
274.5964366188787
 33
0.0
 14
291.5
 24
274.5964366188786
 34
0.0
100
AcDbRotatedDimension
1001
ACAD
1000
DSTYLE
1002
{
1070
    40
1040
2.0
1070
    41
1040
3.5
1070
    42
1040
1.0
1070
    43
1040
7.0
1070
    44
1040
1.0
1070
    73
1070
     0
1070
    74
1070
     0
1070
    77
1070
     1
1070
    78
1070
     8
1070
    79
1070
     2
1070
   140
1040
3.5
1070
   141
1040
1.5
1070
   146
1040
0.5142857142857144
1070
   147
1040
1.5
1070
   172
1070
     1
1070
   178
1070
     1
1070
   179
1070
     2
1070
   271
1070
     2
1070
   272
1070
     2
1070
   284
1070
     8
1070
   285
1070
     8
1070
   286
1070
     8
1002
}
  0
INSERT
  5
1DAA
330
1E
100
AcDbEntity
  8
SCHRAFF
100
AcDbBlockReference
  2
*X3
 10
1.246904278329736
 20
-3.913239388818965
 30
0.0
1001
ACAD
1000
HATCH
1002
{
1070
    16
1000
_U,I
1040
0.1
1040
2.356194490192344
1070
     0
1002
}
  0
ARC
  5
1DAD
330
1E
100
AcDbEntity
  8
SCHRAFF
100
AcDbCircle
 10
275.172674264335
 20
384.2912735458122
 30
0.0
 40
3.718649562888717
100
AcDbArc
 50
330.8533329487224
 51
102.8864623429661
  0
ARC
  5
1DAE
330
1E
100
AcDbEntity
  8
SCHRAFF
100
AcDbCircle
 10
174.8273257356648
 20
384.2912735458122
 30
0.0
 40
3.718649562888717
100
AcDbArc
 50
77.11353765703387
 51
209.1466670512776
  0
LINE
  5
1DAF
330
1E
100
AcDbEntity
  8
MITTEL
100
AcDbLine
 10
225.0
 20
407.4323308678375
 30
0.0
 11
225.0
 21
260.0407206153691
 31
0.0
  0
ARC
  5
1DB1
330
1E
100
AcDbEntity
  8
SCHRAFF
100
AcDbCircle
 10
265.8630810056088
 20
385.040720615369
 30
0.0
 40
4.831292565701573
100
AcDbArc
 50
321.6143238873464
 51
38.38567611265361
  0
ARC
  5
1DB3
330
1E
100
AcDbEntity
  8
SCHRAFF
100
AcDbCircle
 10
258.2004958742057
 20
385.0407206153691
 30
0.0
 40
4.831292565701573
100
AcDbArc
 50
321.6143238873464
 51
38.38567611265361
  0
ARC
  5
1DB5
330
1E
100
AcDbEntity
  8
SCHRAFF
100
AcDbCircle
 10
173.912059428771
 20
385.0407206153691
 30
0.0
 40
4.831292565701573
100
AcDbArc
 50
321.6143238873464
 51
38.38567611265361
  0
DIMENSION
  5
1DCC
330
1E
100
AcDbEntity
  8
BEM
100
AcDbDimension
  2
*D7
 10
144.8869499385144
 20
365.0407206153691
 30
0.0
 11
138.3869499385143
 21
315.0407206153691
 31
0.0
 70
    32
 71
     5
 42
100.0
  3
Standard
100
AcDbAlignedDimension
 13
159.8123299528888
 23
265.0407206153691
 33
0.0
 14
159.1862915010151
 24
365.0407206153691
 34
0.0
 50
90.0
100
AcDbRotatedDimension
1001
ACAD
1000
DSTYLE
1002
{
1070
    40
1040
2.0
1070
    41
1040
3.5
1070
    42
1040
1.0
1070
    43
1040
7.0
1070
    44
1040
1.0
1070
    73
1070
     0
1070
    74
1070
     0
1070
    77
1070
     1
1070
    78
1070
     8
1070
    79
1070
     2
1070
   140
1040
3.5
1070
   141
1040
1.5
1070
   146
1040
0.5142857142857144
1070
   147
1040
1.5
1070
   172
1070
     1
1070
   178
1070
     1
1070
   179
1070
     2
1070
   271
1070
     2
1070
   272
1070
     2
1070
   284
1070
     8
1070
   285
1070
     8
1070
   286
1070
     8
1002
}
  0
LINE
  5
1DCF
330
1E
100
AcDbEntity
  8
STEMPEL
100
AcDbLine
 10
291.5
 20
274.5964366188786
 30
0.0
 11
290.1876700471111
 21
265.040720615369
 31
0.0
  0
LINE
  5
1DD0
330
1E
100
AcDbEntity
  8
STEMPEL
100
AcDbLine
 10
158.4999999999999
 20
274.5964366188787
 30
0.0
 11
159.8123299528888
 21
265.0407206153691
 31
0.0
  0
LINE
  5
1DD1
330
1E
100
AcDbEntity
  8
HILF
100
AcDbLine
 10
289.0
 20
274.5964366188783
 30
0.0
 11
160.9999999999999
 21
274.5964366188784
 31
0.0
  0
ARC
  5
1DD2
330
1E
100
AcDbEntity
  8
STEMPEL
100
AcDbCircle
 10
170.4999999999999
 20
361.0407206153691
 30
0.0
 40
12.0
100
AcDbArc
 50
143.1301023541561
 51
180.0
  0
ARC
  5
1DD3
330
1E
100
AcDbEntity
  8
STEMPEL
100
AcDbCircle
 10
279.4999999999999
 20
361.040720615369
 30
0.0
 40
12.0
100
AcDbArc
 50
0.0
 51
36.86989764584386
  0
ARC
  5
1DD4
330
1E
100
AcDbEntity
  8
STEMPEL
100
AcDbCircle
 10
180.4999999999999
 20
407.7073872820356
 30
0.0
 40
8.0
100
AcDbArc
 50
323.1301023541561
 51
0.0
  0
ARC
  5
1DD5
330
1E
100
AcDbEntity
  8
STEMPEL
100
AcDbCircle
 10
269.4999999999999
 20
407.7073872820356
 30
0.0
 40
8.0
100
AcDbArc
 50
180.0
 51
216.8698976458439
  0
LINE
  5
1DD6
330
1E
100
AcDbEntity
  8
STEMPEL
100
AcDbLine
 10
173.4999999999999
 20
385.0407206153691
 30
0.0
 11
186.8999999999999
 21
402.9073872820356
 31
0.0
  0
LINE
  5
1DD7
330
1E
100
AcDbEntity
  8
STEMPEL
100
AcDbLine
 10
276.5
 20
385.040720615369
 30
0.0
 11
263.1
 21
402.9073872820356
 31
0.0
  0
LINE
  5
1DD9
330
1E
100
AcDbEntity
  8
STEMPEL
100
AcDbLine
 10
173.4999999999999
 20
385.0407206153691
 30
0.0
 11
160.8999999999999
 21
368.2407206153691
 31
0.0
  0
LINE
  5
1DDA
330
1E
100
AcDbEntity
  8
STEMPEL
100
AcDbLine
 10
276.5
 20
385.040720615369
 30
0.0
 11
173.4999999999999
 21
385.0407206153691
 31
0.0
  0
LINE
  5
1DDB
330
1E
100
AcDbEntity
  8
STEMPEL
100
AcDbLine
 10
289.1
 20
368.240720615369
 30
0.0
 11
276.5
 21
385.040720615369
 31
0.0
  0
LINE
  5
1DDC
330
1E
100
AcDbEntity
  8
HILF
100
AcDbLine
 10
288.116843969807
 20
365.040720615369
 30
0.0
 11
161.8831560301928
 21
365.0407206153691
 31
0.0
  0
LINE
  5
1DDD
330
1E
100
AcDbEntity
  8
STEMPEL
100
AcDbLine
 10
158.4999999999999
 20
361.0407206153691
 30
0.0
 11
158.4999999999999
 21
274.5964366188787
 31
0.0
  0
LINE
  5
1DDE
330
1E
100
AcDbEntity
  8
STEMPEL
100
AcDbLine
 10
291.5
 20
361.040720615369
 30
0.0
 11
291.5
 21
274.5964366188786
 31
0.0
  0
LINE
  5
1DE8
330
1E
100
AcDbEntity
  8
STEMPEL
100
AcDbLine
 10
290.1876700471111
 20
265.040720615369
 30
0.0
 11
159.8123299528888
 21
265.0407206153691
 31
0.0
  0
ARC
  5
1DEB
330
1E
100
AcDbEntity
  8
SCHRAFF
100
AcDbCircle
 10
250.5379107428025
 20
385.040720615369
 30
0.0
 40
4.831292565701573
100
AcDbArc
 50
321.6143238873464
 51
38.38567611265361
  0
ARC
  5
1DEC
330
1E
100
AcDbEntity
  8
SCHRAFF
100
AcDbCircle
 10
242.8753256113994
 20
385.040720615369
 30
0.0
 40
4.831292565701573
100
AcDbArc
 50
321.6143238873464
 51
38.38567611265361
  0
ARC
  5
1DEF
330
1E
100
AcDbEntity
  8
SCHRAFF
100
AcDbCircle
 10
235.2127404799962
 20
385.0407206153691
 30
0.0
 40
4.831292565701573
100
AcDbArc
 50
321.6143238873464
 51
38.38567611265361
  0
ARC
  5
1DF1
330
1E
100
AcDbEntity
  8
SCHRAFF
100
AcDbCircle
 10
219.8875702171899
 20
385.0407206153691
 30
0.0
 40
4.831292565701573
100
AcDbArc
 50
321.6143238873464
 51
38.38567611265361
  0
ARC
  5
1DF4
330
1E
100
AcDbEntity
  8
SCHRAFF
100
AcDbCircle
 10
212.2249850857868
 20
385.0407206153691
 30
0.0
 40
4.831292565701573
100
AcDbArc
 50
321.6143238873464
 51
38.38567611265361
  0
ARC
  5
1DF5
330
1E
100
AcDbEntity
  8
SCHRAFF
100
AcDbCircle
 10
227.5501553485931
 20
385.0407206153691
 30
0.0
 40
4.831292565701573
100
AcDbArc
 50
321.6143238873464
 51
38.38567611265361
  0
ARC
  5
1DF7
330
1E
100
AcDbEntity
  8
SCHRAFF
100
AcDbCircle
 10
204.5623999543837
 20
385.0407206153691
 30
0.0
 40
4.831292565701573
100
AcDbArc
 50
321.6143238873464
 51
38.38567611265361
  0
ARC
  5
1DF9
330
1E
100
AcDbEntity
  8
SCHRAFF
100
AcDbCircle
 10
196.8998148229805
 20
385.0407206153691
 30
0.0
 40
4.831292565701573
100
AcDbArc
 50
321.6143238873464
 51
38.38567611265361
  0
ARC
  5
1DFB
330
1E
100
AcDbEntity
  8
SCHRAFF
100
AcDbCircle
 10
189.2372296915773
 20
385.0407206153691
 30
0.0
 40
4.831292565701573
100
AcDbArc
 50
321.6143238873464
 51
38.38567611265361
  0
ARC
  5
1DFD
330
1E
100
AcDbEntity
  8
SCHRAFF
100
AcDbCircle
 10
181.5746445601742
 20
385.0407206153691
 30
0.0
 40
4.831292565701573
100
AcDbArc
 50
321.6143238873464
 51
38.38567611265361
  0
ARC
  5
1E18
330
1E
100
AcDbEntity
  8
STEMPEL
100
AcDbCircle
 10
242.1
 20
469.4917982082503
 30
0.0
 40
25.0
100
AcDbArc
 50
0.0
 51
24.95819631230622
  0
ARC
  5
1E19
330
1E
100
AcDbEntity
  8
STEMPEL
100
AcDbCircle
 10
276.5999999999999
 20
447.040720615369
 30
0.0
 40
12.0
100
AcDbArc
 50
158.8168456069651
 51
180.0
  0
ARC
  5
1E1A
330
1E
100
AcDbEntity
  8
STEMPEL
100
AcDbCircle
 10
242.1
 20
460.410720615369
 30
0.0
 40
25.00009324312574
100
AcDbArc
 50
338.8168456069651
 51
0.156485954331086
  0
LINE
  5
1E1B
330
1E
100
AcDbEntity
  8
STEMPEL
100
AcDbLine
 10
267.1
 20
469.4917982082503
 30
0.0
 11
267.1
 21
460.3424405671752
 31
0.0
  0
ARC
  5
1E1C
330
1E
100
AcDbEntity
  8
STEMPEL
100
AcDbCircle
 10
269.4999999999999
 20
419.7341209508004
 30
0.0
 40
8.0
100
AcDbArc
 50
147.6719358778383
 51
180.0
  0
ARC
  5
1E1D
330
1E
100
AcDbEntity
  8
STEMPEL
100
AcDbCircle
 10
252.6
 20
430.4294470327859
 30
0.0
 40
12.0
100
AcDbArc
 50
327.6719358778383
 51
0.0
  0
LINE
  5
1E1E
330
1E
100
AcDbEntity
  8
STEMPEL
100
AcDbLine
 10
261.4999999999999
 20
419.7341209508004
 30
0.0
 11
261.4999999999999
 21
407.7073872820356
 31
0.0
  0
LINE
  5
1E1F
330
1E
100
AcDbEntity
  8
STEMPEL
100
AcDbLine
 10
264.5999999999999
 20
447.0407206153691
 30
0.0
 11
264.5999999999999
 21
430.4294470327859
 31
0.0
  0
LINE
  5
1E20
330
1E
100
AcDbEntity
  8
MITTEL
100
AcDbLine
 10
225.0
 20
485.040720615369
 30
0.0
 11
225.0
 21
420.8019836471494
 31
0.0
  0
ARC
  5
1E21
330
1E
100
AcDbEntity
  8
STEMPEL
100
AcDbCircle
 10
207.8999999999999
 20
469.4917982082503
 30
0.0
 40
25.0
100
AcDbArc
 50
155.0418036876905
 51
180.0
  0
ARC
  5
1E22
330
1E
100
AcDbEntity
  8
STEMPEL
100
AcDbCircle
 10
173.3999999999999
 20
447.040720615369
 30
0.0
 40
12.0
100
AcDbArc
 50
0.0
 51
21.18315439303489
  0
ARC
  5
1E23
330
1E
100
AcDbEntity
  8
STEMPEL
100
AcDbCircle
 10
207.8999999999999
 20
460.410720615369
 30
0.0
 40
25.00009324312574
100
AcDbArc
 50
179.8435140456689
 51
201.1831543930346
  0
LINE
  5
1E24
330
1E
100
AcDbEntity
  8
STEMPEL
100
AcDbLine
 10
182.8999999999999
 20
469.4917982082503
 30
0.0
 11
182.8999999999999
 21
460.3424405671752
 31
0.0
  0
ARC
  5
1E25
330
1E
100
AcDbEntity
  8
STEMPEL
100
AcDbCircle
 10
180.4999999999999
 20
419.7341209508004
 30
0.0
 40
8.0
100
AcDbArc
 50
0.0
 51
32.32806412216171
  0
ARC
  5
1E26
330
1E
100
AcDbEntity
  8
STEMPEL
100
AcDbCircle
 10
197.3999999999999
 20
430.4294470327859
 30
0.0
 40
12.0
100
AcDbArc
 50
180.0
 51
212.3280641221617
  0
LINE
  5
1E27
330
1E
100
AcDbEntity
  8
STEMPEL
100
AcDbLine
 10
188.4999999999999
 20
419.7341209508004
 30
0.0
 11
188.4999999999999
 21
407.7073872820356
 31
0.0
  0
LINE
  5
1E28
330
1E
100
AcDbEntity
  8
STEMPEL
100
AcDbLine
 10
185.3999999999999
 20
447.0407206153691
 30
0.0
 11
185.3999999999999
 21
430.4294470327859
 31
0.0
  0
LINE
  5
1E29
330
1E
100
AcDbEntity
  8
STEMPEL
100
AcDbLine
 10
264.7653973282749
 20
480.040720615369
 30
0.0
 11
185.2346026717247
 21
480.040720615369
 31
0.0
  0
DIMENSION
  5
2011
330
1E
100
AcDbEntity
  8
BEM
100
AcDbDimension
  2
*D11
 10
127.4087257346206
 20
265.0407206153691
 30
0.0
 11
120.9087257346206
 21
372.5407206153691
 31
0.0
 70
    32
 71
     5
 42
214.9999999999999
  3
Standard
100
AcDbAlignedDimension
 13
185.2346026717247
 23
480.040720615369
 33
0.0
 14
159.8123299528888
 24
265.0407206153691
 34
0.0
 50
90.0
100
AcDbRotatedDimension
1001
ACAD
1000
DSTYLE
1002
{
1070
    40
1040
2.0
1070
    41
1040
3.5
1070
    42
1040
1.0
1070
    43
1040
7.0
1070
    44
1040
1.0
1070
    73
1070
     0
1070
    74
1070
     0
1070
    77
1070
     1
1070
    78
1070
     8
1070
    79
1070
     2
1070
   140
1040
3.5
1070
   141
1040
1.5
1070
   146
1040
0.5142857142857144
1070
   147
1040
1.5
1070
   172
1070
     1
1070
   178
1070
     1
1070
   179
1070
     2
1070
   271
1070
     2
1070
   272
1070
     2
1070
   284
1070
     8
1070
   285
1070
     8
1070
   286
1070
     8
1002
}
  0
DIMENSION
  5
2030
330
1E
100
AcDbEntity
  8
BEM
100
AcDbDimension
  2
*D12
 10
261.4999999999999
 20
409.2322122079256
 30
0.0
 11
225.0
 21
415.7322122079255
 31
0.0
 70
    32
  1
%%c<>
 71
     5
 42
73.0
  3
Standard
100
AcDbAlignedDimension
 13
188.4999999999999
 23
413.7207541164181
 33
0.0
 14
261.4999999999999
 24
413.7207541164181
 34
0.0
100
AcDbRotatedDimension
1001
ACAD
1000
DSTYLE
1002
{
1070
    40
1040
2.0
1070
    41
1040
3.5
1070
    42
1040
1.0
1070
    43
1040
7.0
1070
    44
1040
1.0
1070
    73
1070
     0
1070
    74
1070
     0
1070
    77
1070
     1
1070
    78
1070
     8
1070
    79
1070
     2
1070
   140
1040
3.5
1070
   141
1040
1.5
1070
   146
1040
0.5142857142857144
1070
   147
1040
1.5
1070
   172
1070
     1
1070
   178
1070
     1
1070
   179
1070
     2
1070
   271
1070
     2
1070
   272
1070
     2
1070
   284
1070
     8
1070
   285
1070
     8
1070
   286
1070
     8
1002
}
  0
LINE
  5
20B7
330
1E
100
AcDbEntity
  8
HILF
100
AcDbLine
 10
186.8199465702866
 20
449.2464028342415
 30
0.0
 11
263.1800534297132
 21
449.2464028342415
 31
0.0
  0
LINE
  5
20B8
330
1E
100
AcDbEntity
  8
HILF
100
AcDbLine
 10
187.5511421982038
 20
427.088788415088
 30
0.0
 11
262.4488578017961
 21
427.0887884150881
 31
0.0
  0
LINE
  5
20B9
330
1E
100
AcDbEntity
  8
HILF
100
AcDbLine
 10
189.838094023943
 20
421.9612266959323
 30
0.0
 11
260.1619059760569
 21
421.9612266959323
 31
0.0
  0
LINE
  5
20BA
330
1E
100
AcDbEntity
  8
HILF
100
AcDbLine
 10
189.7606695222321
 20
405.177565153901
 30
0.0
 11
260.2393304777677
 21
405.177565153901
 31
0.0
  0
ENDSEC
  0
SECTION
  2
OBJECTS
  0
DICTIONARY
  5
C
330
0
100
AcDbDictionary
281
     1
  3
ACAD_COLOR
350
DF
  3
ACAD_GROUP
350
D
  3
ACAD_LAYOUT
350
19
  3
ACAD_MATERIAL
350
DE
  3
ACAD_MLINESTYLE
350
16
  3
ACAD_PLOTSETTINGS
350
18
  3
ACAD_PLOTSTYLENAME
350
E
  3
AcDbVariableDictionary
350
EA
  0
DICTIONARY
  5
A0
330
1E
100
AcDbDictionary
280
     1
281
     1
  3
ACAD_LAYOUTSELFREF
360
D4
  0
DICTIONARY
  5
A2
330
1A
100
AcDbDictionary
280
     1
281
     1
  3
ACAD_LAYOUTSELFREF
360
D3
  0
DICTIONARY
  5
DF
102
{ACAD_REACTORS
330
C
102
}
330
C
100
AcDbDictionary
281
     1
  0
DICTIONARY
  5
D
102
{ACAD_REACTORS
330
C
102
}
330
C
100
AcDbDictionary
281
     1
  0
DICTIONARY
  5
19
102
{ACAD_REACTORS
330
C
102
}
330
C
100
AcDbDictionary
281
     1
  3
Layout1
350
1D
  3
Model
350
21
  0
DICTIONARY
  5
DE
102
{ACAD_REACTORS
330
C
102
}
330
C
100
AcDbDictionary
281
     1
  0
DICTIONARY
  5
16
102
{ACAD_REACTORS
330
C
102
}
330
C
100
AcDbDictionary
281
     1
  3
Standard
350
17
  0
DICTIONARY
  5
18
102
{ACAD_REACTORS
330
C
102
}
330
C
100
AcDbDictionary
281
     1
  0
ACDBDICTIONARYWDFLT
  5
E
102
{ACAD_REACTORS
330
C
102
}
330
C
100
AcDbDictionary
281
     1
  3
Normal
350
F
100
AcDbDictionaryWithDefault
340
F
  0
DICTIONARY
  5
EA
102
{ACAD_REACTORS
330
C
102
}
330
C
100
AcDbDictionary
281
     1
  3
DIMASSOC
350
EB
  3
PROJECTNAME
350
EC
  0
XRECORD
  5
D4
102
{ACAD_REACTORS
330
A0
102
}
330
A0
100
AcDbXrecord
280
     1
340
1E
  0
XRECORD
  5
D3
102
{ACAD_REACTORS
330
A2
102
}
330
A2
100
AcDbXrecord
280
     1
340
1A
  0
LAYOUT
  5
1D
102
{ACAD_REACTORS
330
19
102
}
330
19
100
AcDbPlotSettings
  1

  2
\\NT_WORK01\HP LaserJet 5000 PCL 6
  4

  6

 40
0.0
 41
0.0
 42
0.0
 43
0.0
 44
0.0
 45
0.0
 46
0.0
 47
0.0
 48
0.0
 49
0.0
140
0.0
141
0.0
142
1.0
143
1.0
 70
   688
 72
     0
 73
     0
 74
     5
  7

 75
    16
147
1.0
 76
     0
 77
     2
 78
   300
148
0.0
149
0.0
100
AcDbLayout
  1
Layout1
 70
     0
 71
     1
 10
0.0
 20
0.0
 11
12.0
 21
9.0
 12
0.0
 22
0.0
 32
0.0
 14
1.000000000000000E+20
 24
1.000000000000000E+20
 34
1.000000000000000E+20
 15
-1.000000000000000E+20
 25
-1.000000000000000E+20
 35
-1.000000000000000E+20
146
0.0
 13
0.0
 23
0.0
 33
0.0
 16
1.0
 26
0.0
 36
0.0
 17
0.0
 27
1.0
 37
0.0
 76
     0
330
1A
  0
LAYOUT
  5
21
102
{ACAD_REACTORS
330
19
102
}
330
19
100
AcDbPlotSettings
  1

  2
none_device
  4
Letter_(8.50_x_11.00_Inches)
  6

 40
6.349999904632568
 41
6.349999904632568
 42
6.350006103515625
 43
6.350006103515625
 44
215.8999938964844
 45
279.3999938964844
 46
0.0
 47
0.0
 48
0.0
 49
0.0
140
0.0
141
0.0
142
1.0
143
1.0
 70
 11952
 72
     0
 73
     1
 74
     0
  7

 75
     0
147
1.0
 76
     0
 77
     2
 78
   300
148
2307.343575563032
149
97.50979417344687
100
AcDbLayout
  1
Model
 70
     1
 71
     0
 10
0.0
 20
0.0
 11
12.0
 21
9.0
 12
0.0
 22
0.0
 32
0.0
 14
0.0
 24
0.0
 34
0.0
 15
0.0
 25
0.0
 35
0.0
146
0.0
 13
0.0
 23
0.0
 33
0.0
 16
1.0
 26
0.0
 36
0.0
 17
0.0
 27
1.0
 37
0.0
 76
     0
330
1E
  0
MLINESTYLE
  5
17
102
{ACAD_REACTORS
330
16
102
}
330
16
100
AcDbMlineStyle
  2
STANDARD
 70
     0
  3

 62
   256
 51
90.0
 52
90.0
 71
     2
 49
0.5
 62
   256
  6
BYLAYER
 49
-0.5
 62
   256
  6
BYLAYER
  0
ACDBPLACEHOLDER
  5
F
102
{ACAD_REACTORS
330
E
102
}
330
E
  0
DICTIONARYVAR
  5
EB
102
{ACAD_REACTORS
330
EA
102
}
330
EA
100
DictionaryVariables
280
     0
  1
1
  0
DICTIONARYVAR
  5
EC
102
{ACAD_REACTORS
330
EA
102
}
330
EA
100
DictionaryVariables
280
     0
  1

  0
ENDSEC
  0
EOF
