  0
SECTION
  2
HEADER
  9
$ACADVER
  1
AC1018
  9
$ACADMAINTVER
 70
     2
  9
$DWGCODEPAGE
  3
ANSI_1252
  9
$INSBASE
 10
0.0
 20
0.0
 30
0.0
  9
$EXTMIN
 10
-0.0160104821884488
 20
-0.022643396237072
 30
-0.0000000000112498
  9
$EXTMAX
 10
1050.016025151412
 20
1485.022664142714
 30
0.0000000000002956
  9
$LIMMIN
 10
0.0
 20
0.0
  9
$LIMMAX
 10
1050.0
 20
1485.0
  9
$ORTHOMODE
 70
     1
  9
$REGENMODE
 70
     1
  9
$FILLMODE
 70
     1
  9
$QTEXTMODE
 70
     0
  9
$MIRRTEXT
 70
     1
  9
$LTSCALE
 40
50.0
  9
$ATTMODE
 70
     1
  9
$TEXTSIZE
 40
2.5
  9
$TRACEWID
 40
0.5
  9
$TEXTSTYLE
  7
GREEKS
  9
$CLAYER
  8
VOLL
  9
$CELTYPE
  6
ByLayer
  9
$CECOLOR
 62
   256
  9
$CELTSCALE
 40
1.0
  9
$DISPSILH
 70
     0
  9
$DIMSCALE
 40
5.0
  9
$DIMASZ
 40
3.5
  9
$DIMEXO
 40
1.0
  9
$DIMDLI
 40
7.0
  9
$DIMRND
 40
0.0
  9
$DIMDLE
 40
0.0
  9
$DIMEXE
 40
1.0
  9
$DIMTP
 40
6.0
  9
$DIMTM
 40
6.0
  9
$DIMTXT
 40
3.5
  9
$DIMCEN
 40
1.5
  9
$DIMTSZ
 40
0.0
  9
$DIMTOL
 70
     0
  9
$DIMLIM
 70
     0
  9
$DIMTIH
 70
     0
  9
$DIMTOH
 70
     0
  9
$DIMSE1
 70
     0
  9
$DIMSE2
 70
     0
  9
$DIMTAD
 70
     1
  9
$DIMZIN
 70
     8
  9
$DIMBLK
  1

  9
$DIMASO
 70
     1
  9
$DIMSHO
 70
     0
  9
$DIMPOST
  1

  9
$DIMAPOST
  1

  9
$DIMALT
 70
     0
  9
$DIMALTD
 70
     2
  9
$DIMALTF
 40
25.4
  9
$DIMLFAC
 40
1.0
  9
$DIMTOFL
 70
     1
  9
$DIMTVP
 40
0.0
  9
$DIMTIX
 70
     0
  9
$DIMSOXD
 70
     0
  9
$DIMSAH
 70
     0
  9
$DIMBLK1
  1

  9
$DIMBLK2
  1

  9
$DIMSTYLE
  2
Standard
  9
$DIMCLRD
 70
     0
  9
$DIMCLRE
 70
     0
  9
$DIMCLRT
 70
     1
  9
$DIMTFAC
 40
0.5
  9
$DIMGAP
 40
1.5
  9
$DIMJUST
 70
     0
  9
$DIMSD1
 70
     0
  9
$DIMSD2
 70
     0
  9
$DIMTOLJ
 70
     1
  9
$DIMTZIN
 70
     8
  9
$DIMALTZ
 70
     8
  9
$DIMALTTZ
 70
     8
  9
$DIMUPT
 70
     0
  9
$DIMDEC
 70
     2
  9
$DIMTDEC
 70
     2
  9
$DIMALTU
 70
     2
  9
$DIMALTTD
 70
     2
  9
$DIMTXSTY
  7
GREEKS
  9
$DIMAUNIT
 70
     0
  9
$DIMADEC
 70
     2
  9
$DIMALTRND
 40
0.0
  9
$DIMAZIN
 70
     2
  9
$DIMDSEP
 70
    46
  9
$DIMATFIT
 70
     3
  9
$DIMFRAC
 70
     0
  9
$DIMLDRBLK
  1

  9
$DIMLUNIT
 70
     2
  9
$DIMLWD
 70
    -2
  9
$DIMLWE
 70
    -2
  9
$DIMTMOVE
 70
     0
  9
$LUNITS
 70
     2
  9
$LUPREC
 70
     2
  9
$SKETCHINC
 40
1.0
  9
$FILLETRAD
 40
0.0
  9
$AUNITS
 70
     0
  9
$AUPREC
 70
     0
  9
$MENU
  1
ACAD
  9
$ELEVATION
 40
0.0
  9
$PELEVATION
 40
0.0
  9
$THICKNESS
 40
0.0
  9
$LIMCHECK
 70
     0
  9
$CHAMFERA
 40
0.0
  9
$CHAMFERB
 40
0.0
  9
$CHAMFERC
 40
0.0
  9
$CHAMFERD
 40
0.0
  9
$SKPOLY
 70
     0
  9
$TDCREATE
 40
2452216.329141551
  9
$TDUCREATE
 40
2452216.245808218
  9
$TDUPDATE
 40
2455658.355119560
  9
$TDUUPDATE
 40
2455658.271786227
  9
$TDINDWG
 40
0.0358228356
  9
$TDUSRTIMER
 40
0.0358228356
  9
$USRTIMER
 70
     1
  9
$ANGBASE
 50
0.0
  9
$ANGDIR
 70
     0
  9
$PDMODE
 70
     0
  9
$PDSIZE
 40
0.0
  9
$PLINEWID
 40
0.0
  9
$SPLFRAME
 70
     0
  9
$SPLINETYPE
 70
     6
  9
$SPLINESEGS
 70
     8
  9
$HANDSEED
  5
2E6
  9
$SURFTAB1
 70
     6
  9
$SURFTAB2
 70
     6
  9
$SURFTYPE
 70
     6
  9
$SURFU
 70
     6
  9
$SURFV
 70
     6
  9
$UCSBASE
  2

  9
$UCSNAME
  2

  9
$UCSORG
 10
0.0
 20
0.0
 30
0.0
  9
$UCSXDIR
 10
1.0
 20
0.0
 30
0.0
  9
$UCSYDIR
 10
0.0
 20
1.0
 30
0.0
  9
$UCSORTHOREF
  2

  9
$UCSORTHOVIEW
 70
     0
  9
$UCSORGTOP
 10
0.0
 20
0.0
 30
0.0
  9
$UCSORGBOTTOM
 10
0.0
 20
0.0
 30
0.0
  9
$UCSORGLEFT
 10
0.0
 20
0.0
 30
0.0
  9
$UCSORGRIGHT
 10
0.0
 20
0.0
 30
0.0
  9
$UCSORGFRONT
 10
0.0
 20
0.0
 30
0.0
  9
$UCSORGBACK
 10
0.0
 20
0.0
 30
0.0
  9
$PUCSBASE
  2

  9
$PUCSNAME
  2

  9
$PUCSORG
 10
0.0
 20
0.0
 30
0.0
  9
$PUCSXDIR
 10
1.0
 20
0.0
 30
0.0
  9
$PUCSYDIR
 10
0.0
 20
1.0
 30
0.0
  9
$PUCSORTHOREF
  2

  9
$PUCSORTHOVIEW
 70
     0
  9
$PUCSORGTOP
 10
0.0
 20
0.0
 30
0.0
  9
$PUCSORGBOTTOM
 10
0.0
 20
0.0
 30
0.0
  9
$PUCSORGLEFT
 10
0.0
 20
0.0
 30
0.0
  9
$PUCSORGRIGHT
 10
0.0
 20
0.0
 30
0.0
  9
$PUCSORGFRONT
 10
0.0
 20
0.0
 30
0.0
  9
$PUCSORGBACK
 10
0.0
 20
0.0
 30
0.0
  9
$USERI1
 70
     0
  9
$USERI2
 70
     0
  9
$USERI3
 70
     0
  9
$USERI4
 70
     0
  9
$USERI5
 70
     0
  9
$USERR1
 40
0.0
  9
$USERR2
 40
0.0
  9
$USERR3
 40
0.0
  9
$USERR4
 40
0.0
  9
$USERR5
 40
0.0
  9
$WORLDVIEW
 70
     1
  9
$SHADEDGE
 70
     3
  9
$SHADEDIF
 70
    70
  9
$TILEMODE
 70
     1
  9
$MAXACTVP
 70
    16
  9
$PINSBASE
 10
563.6906048606705
 20
50.00000000000001
 30
-2.58105543498411
  9
$PLIMCHECK
 70
     0
  9
$PEXTMIN
 10
1.000000000000000E+20
 20
1.000000000000000E+20
 30
1.000000000000000E+20
  9
$PEXTMAX
 10
-1.000000000000000E+20
 20
-1.000000000000000E+20
 30
-1.000000000000000E+20
  9
$PLIMMIN
 10
0.0
 20
0.0
  9
$PLIMMAX
 10
12.0
 20
9.0
  9
$UNITMODE
 70
     0
  9
$VISRETAIN
 70
     0
  9
$PLINEGEN
 70
     0
  9
$PSLTSCALE
 70
     0
  9
$TREEDEPTH
 70
  3020
  9
$CMLSTYLE
  2
Standard
  9
$CMLJUST
 70
     0
  9
$CMLSCALE
 40
1.0
  9
$PROXYGRAPHICS
 70
     1
  9
$MEASUREMENT
 70
     0
  9
$CELWEIGHT
370
    -1
  9
$ENDCAPS
280
     0
  9
$JOINSTYLE
280
     0
  9
$LWDISPLAY
290
     0
  9
$INSUNITS
 70
     0
  9
$HYPERLINKBASE
  1

  9
$STYLESHEET
  1
monochrome 1.ctb
  9
$XEDIT
290
     1
  9
$CEPSNTYPE
380
     0
  9
$PSTYLEMODE
290
     1
  9
$FINGERPRINTGUID
  2
{ABB196D0-3E94-43F3-A093-CF5CC329026A}
  9
$VERSIONGUID
  2
{C082FEE1-561D-4C05-B870-788310865D3E}
  9
$EXTNAMES
290
     1
  9
$PSVPSCALE
 40
0.0
  9
$OLESTARTUP
290
     0
  9
$SORTENTS
280
   127
  9
$INDEXCTL
280
     0
  9
$HIDETEXT
280
     1
  9
$XCLIPFRAME
290
     0
  9
$HALOGAP
280
     0
  9
$OBSCOLOR
 70
   257
  9
$OBSLTYPE
280
     0
  9
$INTERSECTIONDISPLAY
280
     0
  9
$INTERSECTIONCOLOR
 70
   257
  9
$DIMASSOC
280
     2
  9
$PROJECTNAME
  1

  0
ENDSEC
  0
SECTION
  2
CLASSES
  0
CLASS
  1
ACDBDICTIONARYWDFLT
  2
AcDbDictionaryWithDefault
  3
ObjectDBX Classes
 90
        0
 91
        1
280
     0
281
     0
  0
CLASS
  1
DICTIONARYVAR
  2
AcDbDictionaryVar
  3
ObjectDBX Classes
 90
        0
 91
        3
280
     0
281
     0
  0
ENDSEC
  0
SECTION
  2
TABLES
  0
TABLE
  2
VPORT
  5
8
330
0
100
AcDbSymbolTable
 70
     4
  0
VPORT
  5
2E5
330
8
100
AcDbSymbolTableRecord
100
AcDbViewportTableRecord
  2
*Active
 70
     0
 10
0.0
 20
0.0
 11
1.0
 21
1.0
 12
524.9999999999998
 22
742.4999999999999
 13
0.0
 23
0.0
 14
1.0
 24
1.0
 15
10.0
 25
10.0
 16
0.0
 26
0.0
 36
1.0
 17
0.0
 27
0.0
 37
0.0
 40
1485.0
 41
1.334231805929919
 42
50.0
 43
0.0
 44
0.0
 50
0.0
 51
0.0
 71
     0
 72
  1500
 73
     1
 74
     0
 75
     0
 76
     0
 77
     0
 78
     0
281
     0
 65
     1
110
0.0
120
0.0
130
0.0
111
1.0
121
0.0
131
0.0
112
0.0
122
1.0
132
0.0
 79
     0
146
0.0
  0
ENDTAB
  0
TABLE
  2
LTYPE
  5
5
330
0
100
AcDbSymbolTable
 70
     2
  0
LTYPE
  5
13
330
5
100
AcDbSymbolTableRecord
100
AcDbLinetypeTableRecord
  2
ByBlock
 70
     0
  3

 72
    65
 73
     0
 40
0.0
  0
LTYPE
  5
14
330
5
100
AcDbSymbolTableRecord
100
AcDbLinetypeTableRecord
  2
ByLayer
 70
     0
  3

 72
    65
 73
     0
 40
0.0
  0
LTYPE
  5
15
330
5
100
AcDbSymbolTableRecord
100
AcDbLinetypeTableRecord
  2
Continuous
 70
     0
  3
Solid line
 72
    65
 73
     0
 40
0.0
  0
LTYPE
  5
2D
330
5
100
AcDbSymbolTableRecord
100
AcDbLinetypeTableRecord
  2
STRICHPUNKT
 70
     0
  3
__ . __ . __ . __ . __ . __ . __ . __ . __ . __
 72
    65
 73
     4
 40
1.0
 49
0.5
 74
     0
 49
-0.25
 74
     0
 49
0.0
 74
     0
 49
-0.25
 74
     0
  0
ENDTAB
  0
TABLE
  2
LAYER
  5
2
330
0
100
AcDbSymbolTable
 70
     9
  0
LAYER
  5
10
330
2
100
AcDbSymbolTableRecord
100
AcDbLayerTableRecord
  2
0
 70
     0
 62
     7
  6
Continuous
370
    -3
390
F
  0
LAYER
  5
30
330
2
100
AcDbSymbolTableRecord
100
AcDbLayerTableRecord
  2
VOLL
 70
     0
 62
     1
  6
Continuous
370
    -3
390
F
  0
LAYER
  5
31
330
2
100
AcDbSymbolTableRecord
100
AcDbLayerTableRecord
  2
HILF
 70
     0
 62
     2
  6
Continuous
370
    -3
390
F
  0
LAYER
  5
32
330
2
100
AcDbSymbolTableRecord
100
AcDbLayerTableRecord
  2
MITTEL
 70
     0
 62
     2
  6
STRICHPUNKT
370
    -3
390
F
  0
LAYER
  5
33
330
2
100
AcDbSymbolTableRecord
100
AcDbLayerTableRecord
  2
BEM
 70
     0
 62
     7
  6
Continuous
370
    -3
390
F
  0
LAYER
  5
34
330
2
100
AcDbSymbolTableRecord
100
AcDbLayerTableRecord
  2
STEMPEL
 70
     0
 62
     3
  6
Continuous
370
    -3
390
F
  0
LAYER
  5
35
330
2
100
AcDbSymbolTableRecord
100
AcDbLayerTableRecord
  2
TEXT
 70
     0
 62
     7
  6
Continuous
370
    -3
390
F
  0
LAYER
  5
36
330
2
100
AcDbSymbolTableRecord
100
AcDbLayerTableRecord
  2
DEFPOINTS
 70
     0
 62
     7
  6
Continuous
290
     0
370
    -3
390
F
  0
LAYER
  5
37
330
2
100
AcDbSymbolTableRecord
100
AcDbLayerTableRecord
  2
SCHRAFF
 70
     0
 62
     7
  6
Continuous
370
    -3
390
F
  0
ENDTAB
  0
TABLE
  2
STYLE
  5
3
330
0
100
AcDbSymbolTable
 70
     2
  0
STYLE
  5
11
330
3
100
AcDbSymbolTableRecord
100
AcDbTextStyleTableRecord
  2
STANDARD
 70
     0
 40
0.0
 41
1.0
 50
0.0
 71
     0
 42
3.5
  3
txt
  4

  0
STYLE
  5
2C
330
3
100
AcDbSymbolTableRecord
100
AcDbTextStyleTableRecord
  2
GREEKS
 70
     0
 40
0.0
 41
0.8
 50
0.0
 71
     0
 42
2.5
  3
SIMPLEX.shx
  4

  0
ENDTAB
  0
TABLE
  2
VIEW
  5
6
330
0
100
AcDbSymbolTable
 70
     0
  0
ENDTAB
  0
TABLE
  2
UCS
  5
7
330
0
100
AcDbSymbolTable
 70
     0
  0
ENDTAB
  0
TABLE
  2
APPID
  5
9
330
0
100
AcDbSymbolTable
 70
     1
  0
APPID
  5
12
330
9
100
AcDbSymbolTableRecord
100
AcDbRegAppTableRecord
  2
ACAD
 70
     0
  0
ENDTAB
  0
TABLE
  2
DIMSTYLE
  5
A
330
0
100
AcDbSymbolTable
 70
     1
100
AcDbDimStyleTable
 71
     1
340
222
  0
DIMSTYLE
105
222
102
{ACAD_REACTORS
330
13B
330
13A
330
1B8
102
}
330
A
100
AcDbSymbolTableRecord
100
AcDbDimStyleTableRecord
  2
Standard
 70
     0
340
11
  0
ENDTAB
  0
TABLE
  2
BLOCK_RECORD
  5
1
330
0
100
AcDbSymbolTable
 70
    10
  0
BLOCK_RECORD
  5
20
330
1
100
AcDbSymbolTableRecord
100
AcDbBlockTableRecord
  2
*Model_Space
340
23
  0
BLOCK_RECORD
  5
1C
330
1
100
AcDbSymbolTableRecord
100
AcDbBlockTableRecord
  2
*Paper_Space
340
1F
  0
BLOCK_RECORD
  5
24
330
1
100
AcDbSymbolTableRecord
100
AcDbBlockTableRecord
  2
LOGO
340
0
102
{BLKREFS
331
13E
102
}
  0
BLOCK_RECORD
  5
27
330
1
100
AcDbSymbolTableRecord
100
AcDbBlockTableRecord
  2
*X2
340
0
102
{BLKREFS
331
1BF
102
}
  0
BLOCK_RECORD
  5
243
330
1
100
AcDbSymbolTableRecord
100
AcDbBlockTableRecord
  2
*D5
340
0
  0
BLOCK_RECORD
  5
24F
330
1
100
AcDbSymbolTableRecord
100
AcDbBlockTableRecord
  2
*D6
340
0
  0
BLOCK_RECORD
  5
277
330
1
100
AcDbSymbolTableRecord
100
AcDbBlockTableRecord
  2
*D7
340
0
  0
ENDTAB
  0
ENDSEC
  0
SECTION
  2
BLOCKS
  0
BLOCK
  5
3B
330
20
100
AcDbEntity
  8
0
100
AcDbBlockBegin
  2
*Model_Space
 70
     0
 10
0.0
 20
0.0
 30
0.0
  3
*Model_Space
  1

  0
ENDBLK
  5
3C
330
20
100
AcDbEntity
  8
0
100
AcDbBlockEnd
  0
BLOCK
  5
39
330
1C
100
AcDbEntity
 67
     1
  8
0
100
AcDbBlockBegin
  2
*Paper_Space
 70
     0
 10
0.0
 20
0.0
 30
0.0
  3
*Paper_Space
  1

  0
ENDBLK
  5
3A
330
1C
100
AcDbEntity
 67
     1
  8
0
100
AcDbBlockEnd
  0
BLOCK
  5
3D
330
24
100
AcDbEntity
  8
0
100
AcDbBlockBegin
  2
LOGO
 70
     0
 10
0.0
 20
0.0
 30
0.0
  3
LOGO
  1

  0
ARC
  5
3E
330
24
100
AcDbEntity
  8
0
100
AcDbCircle
 10
11.59973089678112
 20
-9.271599258481501
 30
0.0
 40
4.5
100
AcDbArc
 50
270.0
 51
231.0575587310159
  0
LINE
  5
3F
330
24
100
AcDbEntity
  8
0
100
AcDbLine
 10
3.599730896781125
 20
-4.771599258481529
 30
0.0
 11
3.599730896781153
 21
-11.77159925848133
 31
0.0
  0
LINE
  5
40
330
24
100
AcDbEntity
  8
0
100
AcDbLine
 10
2.599730896781125
 20
-4.771599258481529
 30
0.0
 11
2.599730896781153
 21
-11.77159925848133
 31
0.0
  0
CIRCLE
  5
41
330
24
100
AcDbEntity
  8
0
100
AcDbCircle
 10
11.59973089678112
 20
-9.271599258481501
 30
0.0
 40
3.5
  0
ARC
  5
42
330
24
100
AcDbEntity
  8
0
100
AcDbCircle
 10
31.59973089678115
 20
-9.271599258481472
 30
0.0
 40
4.5
100
AcDbArc
 50
270.0
 51
231.0575587310182
  0
LINE
  5
43
330
24
100
AcDbEntity
  8
0
100
AcDbLine
 10
17.59973089678112
 20
-4.771599258481472
 30
0.0
 11
17.59973089678115
 21
-13.77159925848147
 31
0.0
  0
ARC
  5
44
330
24
100
AcDbEntity
  8
0
100
AcDbCircle
 10
22.59973089678116
 20
-7.271599258481472
 30
0.0
 40
2.5
100
AcDbArc
 50
293.1161887722295
 51
90.0
  0
CIRCLE
  5
45
330
24
100
AcDbEntity
  8
0
100
AcDbCircle
 10
31.59973089678115
 20
-9.271599258481472
 30
0.0
 40
3.5
  0
ARC
  5
46
330
24
100
AcDbEntity
  8
0
100
AcDbCircle
 10
4.599730896781153
 20
-11.77159925848133
 30
0.0
 40
1.0
100
AcDbArc
 50
180.0
 51
270.0
  0
ARC
  5
47
330
24
100
AcDbEntity
  8
0
100
AcDbCircle
 10
4.599730896781153
 20
-11.77159925848133
 30
0.0
 40
2.0
100
AcDbArc
 50
179.9999999999992
 51
270.0
  0
LINE
  5
48
330
24
100
AcDbEntity
  8
0
100
AcDbLine
 10
11.59973089678115
 20
-13.77159925848144
 30
0.0
 11
4.599730896781153
 21
-13.77159925848147
 31
0.0
  0
LINE
  5
49
330
24
100
AcDbEntity
  8
0
100
AcDbLine
 10
8.771303772034769
 20
-12.77159925848136
 30
0.0
 11
4.599730896781153
 21
-12.77159925848133
 31
0.0
  0
LINE
  5
4A
330
24
100
AcDbEntity
  8
0
100
AcDbLine
 10
31.59973089678115
 20
-13.77159925848147
 30
0.0
 11
23.6715276665056
 21
-13.77159925848144
 31
0.0
  0
LINE
  5
4B
330
24
100
AcDbEntity
  8
0
100
AcDbLine
 10
23.56565672307022
 20
-9.51278021337896
 30
0.0
 11
24.4388546544846
 21
-12.77159925848144
 31
0.0
  0
LINE
  5
4C
330
24
100
AcDbEntity
  8
0
100
AcDbLine
 10
22.59973089678116
 20
-9.771599258481472
 30
0.0
 11
18.59973089678112
 21
-9.771599258481472
 31
0.0
  0
LINE
  5
4D
330
24
100
AcDbEntity
  8
0
100
AcDbLine
 10
18.59973089678115
 20
-13.77159925848144
 30
0.0
 11
17.59973089678115
 21
-13.77159925848144
 31
0.0
  0
LINE
  5
4E
330
24
100
AcDbEntity
  8
0
100
AcDbLine
 10
18.59973089678115
 20
-9.771599258481472
 30
0.0
 11
18.59973089678115
 21
-13.77159925848144
 31
0.0
  0
LINE
  5
4F
330
24
100
AcDbEntity
  8
0
100
AcDbLine
 10
22.59973089678116
 20
-9.771599258481472
 30
0.0
 11
23.67152766650562
 21
-13.77159925848147
 31
0.0
  0
ARC
  5
50
330
24
100
AcDbEntity
  8
0
100
AcDbCircle
 10
22.59973089678116
 20
-7.271599258481472
 30
0.0
 40
2.5
100
AcDbArc
 50
270.0
 51
270.0000000000007
  0
LINE
  5
51
330
24
100
AcDbEntity
  8
0
100
AcDbLine
 10
28.77130377203494
 20
-12.77159925848147
 30
0.0
 11
24.43885465448463
 21
-12.77159925848144
 31
0.0
  0
LINE
  5
52
330
24
100
AcDbEntity
  8
0
100
AcDbLine
 10
3.599730896781125
 20
-4.771599258481472
 30
0.0
 11
2.599730896781125
 21
-4.771599258481472
 31
0.0
  0
LINE
  5
53
330
24
100
AcDbEntity
  8
0
100
AcDbLine
 10
22.59973089678116
 20
-8.771599258481472
 30
0.0
 11
18.59973089678115
 21
-8.771599258481472
 31
0.0
  0
LINE
  5
54
330
24
100
AcDbEntity
  8
0
100
AcDbLine
 10
22.59973089678116
 20
-5.771599258481472
 30
0.0
 11
18.59973089678115
 21
-5.771599258481472
 31
0.0
  0
LINE
  5
55
330
24
100
AcDbEntity
  8
0
100
AcDbLine
 10
22.59973089678116
 20
-4.771599258481472
 30
0.0
 11
17.59973089678115
 21
-4.771599258481472
 31
0.0
  0
LINE
  5
56
330
24
100
AcDbEntity
  8
0
100
AcDbLine
 10
18.59973089678115
 20
-5.771599258481472
 30
0.0
 11
18.59973089678115
 21
-8.771599258481472
 31
0.0
  0
ARC
  5
57
330
24
100
AcDbEntity
  8
0
100
AcDbCircle
 10
22.59973089678116
 20
-7.271599258481472
 30
0.0
 40
1.5
100
AcDbArc
 50
270.0
 51
90.0
  0
ENDBLK
  5
58
330
24
100
AcDbEntity
  8
0
100
AcDbBlockEnd
  0
BLOCK
  5
6F
330
27
100
AcDbEntity
  8
0
100
AcDbBlockBegin
  2
*X2
 70
     1
 10
0.0
 20
0.0
 30
0.0
  3
*X2
  1

  0
LINE
  5
70
330
27
100
AcDbEntity
  8
0
 62
     0
100
AcDbLine
 10
1194.430137152169
 20
1149.528856546823
 30
0.0
 11
1194.560010981412
 21
1149.658730376066
 31
0.0
  0
LINE
  5
71
330
27
100
AcDbEntity
  8
0
 62
     0
100
AcDbLine
 10
1194.253360456872
 20
1149.528856546823
 30
0.0
 11
1194.560010981412
 21
1149.835507071363
 31
0.0
  0
LINE
  5
72
330
27
100
AcDbEntity
  8
0
 62
     0
100
AcDbLine
 10
1194.076583761575
 20
1149.528856546823
 30
0.0
 11
1194.560010981412
 21
1150.012283766659
 31
0.0
  0
LINE
  5
73
330
27
100
AcDbEntity
  8
0
 62
     0
100
AcDbLine
 10
1193.899807066278
 20
1149.528856546823
 30
0.0
 11
1194.560010981412
 21
1150.189060461956
 31
0.0
  0
LINE
  5
74
330
27
100
AcDbEntity
  8
0
 62
     0
100
AcDbLine
 10
1193.723030370982
 20
1149.528856546823
 30
0.0
 11
1194.560010981412
 21
1150.365837157252
 31
0.0
  0
LINE
  5
75
330
27
100
AcDbEntity
  8
0
 62
     0
100
AcDbLine
 10
1193.546253675685
 20
1149.528856546823
 30
0.0
 11
1194.560010981412
 21
1150.542613852549
 31
0.0
  0
LINE
  5
76
330
27
100
AcDbEntity
  8
0
 62
     0
100
AcDbLine
 10
1193.369476980389
 20
1149.528856546823
 30
0.0
 11
1194.560010981412
 21
1150.719390547846
 31
0.0
  0
LINE
  5
77
330
27
100
AcDbEntity
  8
0
 62
     0
100
AcDbLine
 10
1193.192700285092
 20
1149.528856546823
 30
0.0
 11
1194.560010981412
 21
1150.896167243142
 31
0.0
  0
LINE
  5
78
330
27
100
AcDbEntity
  8
0
 62
     0
100
AcDbLine
 10
1193.015923589795
 20
1149.528856546823
 30
0.0
 11
1194.560010981412
 21
1151.072943938439
 31
0.0
  0
LINE
  5
79
330
27
100
AcDbEntity
  8
0
 62
     0
100
AcDbLine
 10
1192.839146894499
 20
1149.528856546823
 30
0.0
 11
1194.560010981412
 21
1151.249720633735
 31
0.0
  0
LINE
  5
7A
330
27
100
AcDbEntity
  8
0
 62
     0
100
AcDbLine
 10
1192.662370199202
 20
1149.528856546823
 30
0.0
 11
1194.560010981412
 21
1151.426497329032
 31
0.0
  0
LINE
  5
7B
330
27
100
AcDbEntity
  8
0
 62
     0
100
AcDbLine
 10
1192.485593503906
 20
1149.528856546823
 30
0.0
 11
1194.560010981412
 21
1151.603274024329
 31
0.0
  0
LINE
  5
7C
330
27
100
AcDbEntity
  8
0
 62
     0
100
AcDbLine
 10
1192.308816808609
 20
1149.528856546823
 30
0.0
 11
1194.560010981412
 21
1151.780050719626
 31
0.0
  0
LINE
  5
7D
330
27
100
AcDbEntity
  8
0
 62
     0
100
AcDbLine
 10
1192.132040113312
 20
1149.528856546823
 30
0.0
 11
1194.560010981412
 21
1151.956827414922
 31
0.0
  0
LINE
  5
7E
330
27
100
AcDbEntity
  8
0
 62
     0
100
AcDbLine
 10
1191.955263418015
 20
1149.528856546823
 30
0.0
 11
1194.560010981412
 21
1152.133604110219
 31
0.0
  0
LINE
  5
7F
330
27
100
AcDbEntity
  8
0
 62
     0
100
AcDbLine
 10
1191.778486722719
 20
1149.528856546823
 30
0.0
 11
1194.560010981412
 21
1152.310380805515
 31
0.0
  0
LINE
  5
80
330
27
100
AcDbEntity
  8
0
 62
     0
100
AcDbLine
 10
1191.601710027422
 20
1149.528856546823
 30
0.0
 11
1194.560010981412
 21
1152.487157500812
 31
0.0
  0
LINE
  5
81
330
27
100
AcDbEntity
  8
0
 62
     0
100
AcDbLine
 10
1191.424933332126
 20
1149.528856546823
 30
0.0
 11
1194.560010981412
 21
1152.663934196109
 31
0.0
  0
LINE
  5
82
330
27
100
AcDbEntity
  8
0
 62
     0
100
AcDbLine
 10
1191.248156636829
 20
1149.528856546823
 30
0.0
 11
1194.560010981412
 21
1152.840710891405
 31
0.0
  0
LINE
  5
83
330
27
100
AcDbEntity
  8
0
 62
     0
100
AcDbLine
 10
1191.071379941532
 20
1149.528856546823
 30
0.0
 11
1194.560010981412
 21
1153.017487586702
 31
0.0
  0
LINE
  5
84
330
27
100
AcDbEntity
  8
0
 62
     0
100
AcDbLine
 10
1190.894603246236
 20
1149.528856546823
 30
0.0
 11
1194.560010981412
 21
1153.194264281999
 31
0.0
  0
LINE
  5
85
330
27
100
AcDbEntity
  8
0
 62
     0
100
AcDbLine
 10
1190.717826550939
 20
1149.528856546823
 30
0.0
 11
1194.560010981412
 21
1153.371040977295
 31
0.0
  0
LINE
  5
86
330
27
100
AcDbEntity
  8
0
 62
     0
100
AcDbLine
 10
1190.560056136493
 20
1149.547862827673
 30
0.0
 11
1194.541004700561
 21
1153.528811391741
 31
0.0
  0
LINE
  5
87
330
27
100
AcDbEntity
  8
0
 62
     0
100
AcDbLine
 10
1190.565053239467
 20
1149.729636625943
 30
0.0
 11
1194.359230902291
 21
1153.523814288768
 31
0.0
  0
LINE
  5
88
330
27
100
AcDbEntity
  8
0
 62
     0
100
AcDbLine
 10
1190.57924008408
 20
1149.920600165853
 30
0.0
 11
1194.168267362381
 21
1153.509627444155
 31
0.0
  0
LINE
  5
89
330
27
100
AcDbEntity
  8
0
 62
     0
100
AcDbLine
 10
1190.604298045601
 20
1150.122434822671
 30
0.0
 11
1193.966432705563
 21
1153.484569482633
 31
0.0
  0
LINE
  5
8A
330
27
100
AcDbEntity
  8
0
 62
     0
100
AcDbLine
 10
1190.642605600391
 20
1150.337519072758
 30
0.0
 11
1193.751348455476
 21
1153.446261927843
 31
0.0
  0
LINE
  5
8B
330
27
100
AcDbEntity
  8
0
 62
     0
100
AcDbLine
 10
1190.697727701453
 20
1150.569417869117
 30
0.0
 11
1193.519449659117
 21
1153.391139826781
 31
0.0
  0
LINE
  5
8C
330
27
100
AcDbEntity
  8
0
 62
     0
100
AcDbLine
 10
1190.77546667903
 20
1150.823933541991
 30
0.0
 11
1193.264933986244
 21
1153.313400849204
 31
0.0
  0
LINE
  5
8D
330
27
100
AcDbEntity
  8
0
 62
     0
100
AcDbLine
 10
1190.886551235103
 20
1151.11179479336
 30
0.0
 11
1192.977072734874
 21
1153.202316293131
 31
0.0
  0
LINE
  5
8E
330
27
100
AcDbEntity
  8
0
 62
     0
100
AcDbLine
 10
1191.055925572529
 20
1151.457945826082
 30
0.0
 11
1192.630921702152
 21
1153.032941955705
 31
0.0
  0
LINE
  5
8F
330
27
100
AcDbEntity
  8
0
 62
     0
100
AcDbLine
 10
1191.391564013094
 20
1151.970360961944
 30
0.0
 11
1192.118506566291
 21
1152.697303515141
 31
0.0
  0
LINE
  5
90
330
27
100
AcDbEntity
  8
0
 62
     0
100
AcDbLine
 10
1363.560010981412
 20
1153.37252027371
 30
0.0
 11
1363.713404958361
 21
1153.52591425066
 31
0.0
  0
LINE
  5
91
330
27
100
AcDbEntity
  8
0
 62
     0
100
AcDbLine
 10
1363.560010981412
 20
1153.195743578414
 30
0.0
 11
1363.880281670048
 21
1153.51601426705
 31
0.0
  0
LINE
  5
92
330
27
100
AcDbEntity
  8
0
 62
     0
100
AcDbLine
 10
1363.560010981412
 20
1153.018966883117
 30
0.0
 11
1364.040889877901
 21
1153.499845779606
 31
0.0
  0
LINE
  5
93
330
27
100
AcDbEntity
  8
0
 62
     0
100
AcDbLine
 10
1363.560010981412
 20
1152.84219018782
 30
0.0
 11
1364.195822087926
 21
1153.478001294335
 31
0.0
  0
LINE
  5
94
330
27
100
AcDbEntity
  8
0
 62
     0
100
AcDbLine
 10
1363.560010981412
 20
1152.665413492524
 30
0.0
 11
1364.345559739175
 21
1153.450962250287
 31
0.0
  0
LINE
  5
95
330
27
100
AcDbEntity
  8
0
 62
     0
100
AcDbLine
 10
1363.560010981412
 20
1152.488636797227
 30
0.0
 11
1364.490499502255
 21
1153.419125318071
 31
0.0
  0
LINE
  5
96
330
27
100
AcDbEntity
  8
0
 62
     0
100
AcDbLine
 10
1363.560010981412
 20
1152.311860101931
 30
0.0
 11
1364.630971955464
 21
1153.382821075983
 31
0.0
  0
LINE
  5
97
330
27
100
AcDbEntity
  8
0
 62
     0
100
AcDbLine
 10
1363.560010981412
 20
1152.135083406634
 30
0.0
 11
1364.767255173197
 21
1153.34232759842
 31
0.0
  0
LINE
  5
98
330
27
100
AcDbEntity
  8
0
 62
     0
100
AcDbLine
 10
1363.560010981412
 20
1151.958306711337
 30
0.0
 11
1364.899584819508
 21
1153.297880549434
 31
0.0
  0
LINE
  5
99
330
27
100
AcDbEntity
  8
0
 62
     0
100
AcDbLine
 10
1363.560010981412
 20
1151.78153001604
 30
0.0
 11
1365.028161780065
 21
1153.249680814694
 31
0.0
  0
LINE
  5
9A
330
27
100
AcDbEntity
  8
0
 62
     0
100
AcDbLine
 10
1363.560010981412
 20
1151.604753320744
 30
0.0
 11
1365.153158021453
 21
1153.197900360785
 31
0.0
  0
LINE
  5
9B
330
27
100
AcDbEntity
  8
0
 62
     0
100
AcDbLine
 10
1363.560010981412
 20
1151.427976625447
 30
0.0
 11
1365.274721148314
 21
1153.14268679235
 31
0.0
  0
LINE
  5
9C
330
27
100
AcDbEntity
  8
0
 62
     0
100
AcDbLine
 10
1363.560010981412
 20
1151.251199930151
 30
0.0
 11
1365.392977986523
 21
1153.084166935262
 31
0.0
  0
LINE
  5
9D
330
27
100
AcDbEntity
  8
0
 62
     0
100
AcDbLine
 10
1363.560010981412
 20
1151.074423234854
 30
0.0
 11
1365.508037425528
 21
1153.022449678971
 31
0.0
  0
LINE
  5
9E
330
27
100
AcDbEntity
  8
0
 62
     0
100
AcDbLine
 10
1363.560010981412
 20
1150.897646539557
 30
0.0
 11
1365.61999268822
 21
1152.957628246366
 31
0.0
  0
LINE
  5
9F
330
27
100
AcDbEntity
  8
0
 62
     0
100
AcDbLine
 10
1363.560010981412
 20
1150.720869844261
 30
0.0
 11
1365.728923151513
 21
1152.889782014362
 31
0.0
  0
LINE
  5
A0
330
27
100
AcDbEntity
  8
0
 62
     0
100
AcDbLine
 10
1363.560010981412
 20
1150.544093148964
 30
0.0
 11
1365.834895808893
 21
1152.818977976446
 31
0.0
  0
LINE
  5
A1
330
27
100
AcDbEntity
  8
0
 62
     0
100
AcDbLine
 10
1363.560010981412
 20
1150.367316453667
 30
0.0
 11
1365.937966443034
 21
1152.74527191529
 31
0.0
  0
LINE
  5
A2
330
27
100
AcDbEntity
  8
0
 62
     0
100
AcDbLine
 10
1363.560010981412
 20
1150.190539758371
 30
0.0
 11
1366.038180559644
 21
1152.668709336603
 31
0.0
  0
LINE
  5
A3
330
27
100
AcDbEntity
  8
0
 62
     0
100
AcDbLine
 10
1363.560010981412
 20
1150.013763063074
 30
0.0
 11
1366.135574120969
 21
1152.589326202631
 31
0.0
  0
LINE
  5
A4
330
27
100
AcDbEntity
  8
0
 62
     0
100
AcDbLine
 10
1363.560010981412
 20
1149.836986367778
 30
0.0
 11
1366.230174107645
 21
1152.507149494011
 31
0.0
  0
LINE
  5
A5
330
27
100
AcDbEntity
  8
0
 62
     0
100
AcDbLine
 10
1363.560010981412
 20
1149.660209672481
 30
0.0
 11
1366.321998929991
 21
1152.422197621061
 31
0.0
  0
LINE
  5
A6
330
27
100
AcDbEntity
  8
0
 62
     0
100
AcDbLine
 10
1363.60543455105
 20
1149.528856546823
 30
0.0
 11
1366.411058703636
 21
1152.334480699408
 31
0.0
  0
LINE
  5
A7
330
27
100
AcDbEntity
  8
0
 62
     0
100
AcDbLine
 10
1363.782211246347
 20
1149.528856546823
 30
0.0
 11
1366.497355399243
 21
1152.244000699719
 31
0.0
  0
LINE
  5
A8
330
27
100
AcDbEntity
  8
0
 62
     0
100
AcDbLine
 10
1363.958987941643
 20
1149.528856546823
 30
0.0
 11
1366.580882871539
 21
1152.150751476718
 31
0.0
  0
LINE
  5
A9
330
27
100
AcDbEntity
  8
0
 62
     0
100
AcDbLine
 10
1364.13576463694
 20
1149.528856546823
 30
0.0
 11
1366.661626768643
 21
1152.054718678525
 31
0.0
  0
LINE
  5
AA
330
27
100
AcDbEntity
  8
0
 62
     0
100
AcDbLine
 10
1364.312541332237
 20
1149.528856546823
 30
0.0
 11
1366.739564318565
 21
1151.955879533151
 31
0.0
  0
LINE
  5
AB
330
27
100
AcDbEntity
  8
0
 62
     0
100
AcDbLine
 10
1364.489318027533
 20
1149.528856546823
 30
0.0
 11
1366.814663985385
 21
1151.854202504674
 31
0.0
  0
LINE
  5
AC
330
27
100
AcDbEntity
  8
0
 62
     0
100
AcDbLine
 10
1364.66609472283
 20
1149.528856546823
 30
0.0
 11
1366.886884982807
 21
1151.7496468068
 31
0.0
  0
LINE
  5
AD
330
27
100
AcDbEntity
  8
0
 62
     0
100
AcDbLine
 10
1364.842871418127
 20
1149.528856546823
 30
0.0
 11
1366.956176627167
 21
1151.642161755864
 31
0.0
  0
LINE
  5
AE
330
27
100
AcDbEntity
  8
0
 62
     0
100
AcDbLine
 10
1365.019648113423
 20
1149.528856546823
 30
0.0
 11
1367.022477505113
 21
1151.531685938513
 31
0.0
  0
LINE
  5
AF
330
27
100
AcDbEntity
  8
0
 62
     0
100
AcDbLine
 10
1365.19642480872
 20
1149.528856546823
 30
0.0
 11
1367.085714422567
 21
1151.41814616067
 31
0.0
  0
LINE
  5
B0
330
27
100
AcDbEntity
  8
0
 62
     0
100
AcDbLine
 10
1365.373201504016
 20
1149.528856546823
 30
0.0
 11
1367.145801090457
 21
1151.301456133263
 31
0.0
  0
LINE
  5
B1
330
27
100
AcDbEntity
  8
0
 62
     0
100
AcDbLine
 10
1365.549978199313
 20
1149.528856546823
 30
0.0
 11
1367.202636487958
 21
1151.181514835468
 31
0.0
  0
LINE
  5
B2
330
27
100
AcDbEntity
  8
0
 62
     0
100
AcDbLine
 10
1365.72675489461
 20
1149.528856546823
 30
0.0
 11
1367.256102824191
 21
1151.058204476404
 31
0.0
  0
LINE
  5
B3
330
27
100
AcDbEntity
  8
0
 62
     0
100
AcDbLine
 10
1365.903531589906
 20
1149.528856546823
 30
0.0
 11
1367.306062992008
 21
1150.931387948924
 31
0.0
  0
LINE
  5
B4
330
27
100
AcDbEntity
  8
0
 62
     0
100
AcDbLine
 10
1366.080308285203
 20
1149.528856546823
 30
0.0
 11
1367.352357369487
 21
1150.800905631106
 31
0.0
  0
LINE
  5
B5
330
27
100
AcDbEntity
  8
0
 62
     0
100
AcDbLine
 10
1366.2570849805
 20
1149.528856546823
 30
0.0
 11
1367.394799770466
 21
1150.66657133679
 31
0.0
  0
LINE
  5
B6
330
27
100
AcDbEntity
  8
0
 62
     0
100
AcDbLine
 10
1366.433861675796
 20
1149.528856546823
 30
0.0
 11
1367.433172266805
 21
1150.528167137832
 31
0.0
  0
LINE
  5
B7
330
27
100
AcDbEntity
  8
0
 62
     0
100
AcDbLine
 10
1366.610638371093
 20
1149.528856546823
 30
0.0
 11
1367.467218488394
 21
1150.385436664123
 31
0.0
  0
LINE
  5
B8
330
27
100
AcDbEntity
  8
0
 62
     0
100
AcDbLine
 10
1366.787415066389
 20
1149.528856546823
 30
0.0
 11
1367.496634830172
 21
1150.238076310605
 31
0.0
  0
LINE
  5
B9
330
27
100
AcDbEntity
  8
0
 62
     0
100
AcDbLine
 10
1366.964191761686
 20
1149.528856546823
 30
0.0
 11
1367.521058720369
 21
1150.085723505505
 31
0.0
  0
LINE
  5
BA
330
27
100
AcDbEntity
  8
0
 62
     0
100
AcDbLine
 10
1367.140968456983
 20
1149.528856546823
 30
0.0
 11
1367.540052664061
 21
1149.927940753902
 31
0.0
  0
LINE
  5
BB
330
27
100
AcDbEntity
  8
0
 62
     0
100
AcDbLine
 10
1367.317745152279
 20
1149.528856546823
 30
0.0
 11
1367.553082048315
 21
1149.764193442858
 31
0.0
  0
LINE
  5
BC
330
27
100
AcDbEntity
  8
0
 62
     0
100
AcDbLine
 10
1367.494521847576
 20
1149.528856546823
 30
0.0
 11
1367.559483445471
 21
1149.593818144718
 31
0.0
  0
LINE
  5
BD
330
27
100
AcDbEntity
  8
0
 62
     0
100
AcDbLine
 10
1194.560010981412
 20
1153.388055948519
 30
0.0
 11
1194.421605606218
 21
1153.526461323713
 31
0.0
  0
LINE
  5
BE
330
27
100
AcDbEntity
  8
0
 62
     0
100
AcDbLine
 10
1194.560010981412
 20
1153.211279253222
 30
0.0
 11
1194.254145076361
 21
1153.517145158273
 31
0.0
  0
LINE
  5
BF
330
27
100
AcDbEntity
  8
0
 62
     0
100
AcDbLine
 10
1194.560010981412
 20
1153.034502557926
 30
0.0
 11
1194.093011581621
 21
1153.501501957716
 31
0.0
  0
LINE
  5
C0
330
27
100
AcDbEntity
  8
0
 62
     0
100
AcDbLine
 10
1194.560010981412
 20
1152.857725862629
 30
0.0
 11
1193.937601248102
 21
1153.480135595938
 31
0.0
  0
LINE
  5
C1
330
27
100
AcDbEntity
  8
0
 62
     0
100
AcDbLine
 10
1194.560010981412
 20
1152.680949167332
 30
0.0
 11
1193.787424066154
 21
1153.45353608259
 31
0.0
  0
LINE
  5
C2
330
27
100
AcDbEntity
  8
0
 62
     0
100
AcDbLine
 10
1194.560010981412
 20
1152.504172472036
 30
0.0
 11
1193.642076753653
 21
1153.422106699794
 31
0.0
  0
LINE
  5
C3
330
27
100
AcDbEntity
  8
0
 62
     0
100
AcDbLine
 10
1194.560010981412
 20
1152.327395776739
 30
0.0
 11
1193.501223529355
 21
1153.386183228796
 31
0.0
  0
LINE
  5
C4
330
27
100
AcDbEntity
  8
0
 62
     0
100
AcDbLine
 10
1194.560010981412
 20
1152.150619081443
 30
0.0
 11
1193.364582151573
 21
1153.346047911281
 31
0.0
  0
LINE
  5
C5
330
27
100
AcDbEntity
  8
0
 62
     0
100
AcDbLine
 10
1194.560010981412
 20
1151.973842386146
 30
0.0
 11
1193.231913565204
 21
1153.301939802353
 31
0.0
  0
LINE
  5
C6
330
27
100
AcDbEntity
  8
0
 62
     0
100
AcDbLine
 10
1194.560010981412
 20
1151.797065690849
 30
0.0
 11
1193.103014084978
 21
1153.254062587283
 31
0.0
  0
LINE
  5
C7
330
27
100
AcDbEntity
  8
0
 62
     0
100
AcDbLine
 10
1194.560010981412
 20
1151.620288995553
 30
0.0
 11
1192.977709401775
 21
1153.202590575189
 31
0.0
  0
LINE
  5
C8
330
27
100
AcDbEntity
  8
0
 62
     0
100
AcDbLine
 10
1194.560010981412
 20
1151.443512300256
 30
0.0
 11
1192.855849925874
 21
1153.147673355793
 31
0.0
  0
LINE
  5
C9
330
27
100
AcDbEntity
  8
0
 62
     0
100
AcDbLine
 10
1194.560010981412
 20
1151.266735604959
 30
0.0
 11
1192.737307128664
 21
1153.089439457707
 31
0.0
  0
LINE
  5
CA
330
27
100
AcDbEntity
  8
0
 62
     0
100
AcDbLine
 10
1194.560010981412
 20
1151.089958909663
 30
0.0
 11
1192.621970642718
 21
1153.027999248356
 31
0.0
  0
LINE
  5
CB
330
27
100
AcDbEntity
  8
0
 62
     0
100
AcDbLine
 10
1194.560010981412
 20
1150.913182214366
 30
0.0
 11
1192.509745947108
 21
1152.963447248669
 31
0.0
  0
LINE
  5
CC
330
27
100
AcDbEntity
  8
0
 62
     0
100
AcDbLine
 10
1194.560010981412
 20
1150.73640551907
 30
0.0
 11
1192.400552511385
 21
1152.895863989096
 31
0.0
  0
LINE
  5
CD
330
27
100
AcDbEntity
  8
0
 62
     0
100
AcDbLine
 10
1194.560010981412
 20
1150.559628823773
 30
0.0
 11
1192.294322304583
 21
1152.825317500601
 31
0.0
  0
LINE
  5
CE
330
27
100
AcDbEntity
  8
0
 62
     0
100
AcDbLine
 10
1194.560010981412
 20
1150.382852128476
 30
0.0
 11
1192.190998599389
 21
1152.751864510499
 31
0.0
  0
LINE
  5
CF
330
27
100
AcDbEntity
  8
0
 62
     0
100
AcDbLine
 10
1194.560010981412
 20
1150.206075433179
 30
0.0
 11
1192.090535019008
 21
1152.675551395582
 31
0.0
  0
LINE
  5
D0
330
27
100
AcDbEntity
  8
0
 62
     0
100
AcDbLine
 10
1194.560010981412
 20
1150.029298737883
 30
0.0
 11
1191.992894787336
 21
1152.596414931958
 31
0.0
  0
LINE
  5
D1
330
27
100
AcDbEntity
  8
0
 62
     0
100
AcDbLine
 10
1194.560010981412
 20
1149.852522042586
 30
0.0
 11
1191.898050152956
 21
1152.514482871042
 31
0.0
  0
LINE
  5
D2
330
27
100
AcDbEntity
  8
0
 62
     0
100
AcDbLine
 10
1194.560010981412
 20
1149.67574534729
 30
0.0
 11
1191.805981965302
 21
1152.429774363399
 31
0.0
  0
LINE
  5
D3
330
27
100
AcDbEntity
  8
0
 62
     0
100
AcDbLine
 10
1194.530123086582
 20
1149.528856546823
 30
0.0
 11
1191.716679387565
 21
1152.342300245839
 31
0.0
  0
LINE
  5
D4
330
27
100
AcDbEntity
  8
0
 62
     0
100
AcDbLine
 10
1194.353346391285
 20
1149.528856546823
 30
0.0
 11
1191.630139736175
 21
1152.252063201933
 31
0.0
  0
LINE
  5
D5
330
27
100
AcDbEntity
  8
0
 62
     0
100
AcDbLine
 10
1194.176569695988
 20
1149.528856546823
 30
0.0
 11
1191.546368441268
 21
1152.159057801543
 31
0.0
  0
LINE
  5
D6
330
27
100
AcDbEntity
  8
0
 62
     0
100
AcDbLine
 10
1193.999793000692
 20
1149.528856546823
 30
0.0
 11
1191.465379126769
 21
1152.063270420745
 31
0.0
  0
LINE
  5
D7
330
27
100
AcDbEntity
  8
0
 62
     0
100
AcDbLine
 10
1193.823016305395
 20
1149.528856546823
 30
0.0
 11
1191.387193812869
 21
1151.964679039349
 31
0.0
  0
LINE
  5
D8
330
27
100
AcDbEntity
  8
0
 62
     0
100
AcDbLine
 10
1193.646239610099
 20
1149.528856546823
 30
0.0
 11
1191.311843247969
 21
1151.863252908952
 31
0.0
  0
LINE
  5
D9
330
27
100
AcDbEntity
  8
0
 62
     0
100
AcDbLine
 10
1193.469462914802
 20
1149.528856546823
 30
0.0
 11
1191.239367381967
 21
1151.758952079657
 31
0.0
  0
LINE
  5
DA
330
27
100
AcDbEntity
  8
0
 62
     0
100
AcDbLine
 10
1193.292686219505
 20
1149.528856546823
 30
0.0
 11
1191.169815998254
 21
1151.651726768074
 31
0.0
  0
LINE
  5
DB
330
27
100
AcDbEntity
  8
0
 62
     0
100
AcDbLine
 10
1193.115909524209
 20
1149.528856546823
 30
0.0
 11
1191.103249528552
 21
1151.54151654248
 31
0.0
  0
LINE
  5
DC
330
27
100
AcDbEntity
  8
0
 62
     0
100
AcDbLine
 10
1192.939132828912
 20
1149.528856546823
 30
0.0
 11
1191.039740083122
 21
1151.428249292612
 31
0.0
  0
LINE
  5
DD
330
27
100
AcDbEntity
  8
0
 62
     0
100
AcDbLine
 10
1192.762356133616
 20
1149.528856546823
 30
0.0
 11
1190.979372739783
 21
1151.311839940655
 31
0.0
  0
LINE
  5
DE
330
27
100
AcDbEntity
  8
0
 62
     0
100
AcDbLine
 10
1192.585579438319
 20
1149.528856546823
 30
0.0
 11
1190.922247149471
 21
1151.192188835671
 31
0.0
  0
LINE
  5
DF
330
27
100
AcDbEntity
  8
0
 62
     0
100
AcDbLine
 10
1192.408802743022
 20
1149.528856546823
 30
0.0
 11
1190.86847953547
 21
1151.069179754375
 31
0.0
  0
LINE
  5
E0
330
27
100
AcDbEntity
  8
0
 62
     0
100
AcDbLine
 10
1192.232026047725
 20
1149.528856546823
 30
0.0
 11
1190.818205189833
 21
1150.942677404715
 31
0.0
  0
LINE
  5
E1
330
27
100
AcDbEntity
  8
0
 62
     0
100
AcDbLine
 10
1192.055249352429
 20
1149.528856546823
 30
0.0
 11
1190.771581607538
 21
1150.812524291713
 31
0.0
  0
LINE
  5
E2
330
27
100
AcDbEntity
  8
0
 62
     0
100
AcDbLine
 10
1191.878472657132
 20
1149.528856546823
 30
0.0
 11
1190.728792451406
 21
1150.678536752549
 31
0.0
  0
LINE
  5
E3
330
27
100
AcDbEntity
  8
0
 62
     0
100
AcDbLine
 10
1191.701695961836
 20
1149.528856546823
 30
0.0
 11
1190.690052616932
 21
1150.540499891727
 31
0.0
  0
LINE
  5
E4
330
27
100
AcDbEntity
  8
0
 62
     0
100
AcDbLine
 10
1191.524919266539
 20
1149.528856546823
 30
0.0
 11
1190.655614778724
 21
1150.398161034638
 31
0.0
  0
LINE
  5
E5
330
27
100
AcDbEntity
  8
0
 62
     0
100
AcDbLine
 10
1191.348142571242
 20
1149.528856546823
 30
0.0
 11
1190.625777970549
 21
1150.251221147516
 31
0.0
  0
LINE
  5
E6
330
27
100
AcDbEntity
  8
0
 62
     0
100
AcDbLine
 10
1191.171365875946
 20
1149.528856546823
 30
0.0
 11
1190.600899015212
 21
1150.099323407556
 31
0.0
  0
LINE
  5
E7
330
27
100
AcDbEntity
  8
0
 62
     0
100
AcDbLine
 10
1190.994589180649
 20
1149.528856546823
 30
0.0
 11
1190.581408042311
 21
1149.942037685161
 31
0.0
  0
LINE
  5
E8
330
27
100
AcDbEntity
  8
0
 62
     0
100
AcDbLine
 10
1190.817812485352
 20
1149.528856546823
 30
0.0
 11
1190.567830027254
 21
1149.778839004921
 31
0.0
  0
LINE
  5
E9
330
27
100
AcDbEntity
  8
0
 62
     0
100
AcDbLine
 10
1190.641035790056
 20
1149.528856546823
 30
0.0
 11
1190.560815474675
 21
1149.609076862203
 31
0.0
  0
LINE
  5
EA
330
27
100
AcDbEntity
  8
0
 62
     0
100
AcDbLine
 10
1363.705420485463
 20
1149.528856546823
 30
0.0
 11
1363.560010981412
 21
1149.674266050874
 31
0.0
  0
LINE
  5
EB
330
27
100
AcDbEntity
  8
0
 62
     0
100
AcDbLine
 10
1363.88219718076
 20
1149.528856546823
 30
0.0
 11
1363.560010981412
 21
1149.851042746171
 31
0.0
  0
LINE
  5
EC
330
27
100
AcDbEntity
  8
0
 62
     0
100
AcDbLine
 10
1364.058973876056
 20
1149.528856546823
 30
0.0
 11
1363.560010981412
 21
1150.027819441468
 31
0.0
  0
LINE
  5
ED
330
27
100
AcDbEntity
  8
0
 62
     0
100
AcDbLine
 10
1364.235750571353
 20
1149.528856546823
 30
0.0
 11
1363.560010981412
 21
1150.204596136764
 31
0.0
  0
LINE
  5
EE
330
27
100
AcDbEntity
  8
0
 62
     0
100
AcDbLine
 10
1364.41252726665
 20
1149.528856546823
 30
0.0
 11
1363.560010981412
 21
1150.381372832061
 31
0.0
  0
LINE
  5
EF
330
27
100
AcDbEntity
  8
0
 62
     0
100
AcDbLine
 10
1364.589303961946
 20
1149.528856546823
 30
0.0
 11
1363.560010981412
 21
1150.558149527358
 31
0.0
  0
LINE
  5
F0
330
27
100
AcDbEntity
  8
0
 62
     0
100
AcDbLine
 10
1364.766080657243
 20
1149.528856546823
 30
0.0
 11
1363.560010981412
 21
1150.734926222654
 31
0.0
  0
LINE
  5
F1
330
27
100
AcDbEntity
  8
0
 62
     0
100
AcDbLine
 10
1364.94285735254
 20
1149.528856546823
 30
0.0
 11
1363.560010981412
 21
1150.911702917951
 31
0.0
  0
LINE
  5
F2
330
27
100
AcDbEntity
  8
0
 62
     0
100
AcDbLine
 10
1365.119634047836
 20
1149.528856546823
 30
0.0
 11
1363.560010981412
 21
1151.088479613248
 31
0.0
  0
LINE
  5
F3
330
27
100
AcDbEntity
  8
0
 62
     0
100
AcDbLine
 10
1365.296410743133
 20
1149.528856546823
 30
0.0
 11
1363.560010981412
 21
1151.265256308544
 31
0.0
  0
LINE
  5
F4
330
27
100
AcDbEntity
  8
0
 62
     0
100
AcDbLine
 10
1365.47318743843
 20
1149.528856546823
 30
0.0
 11
1363.560010981412
 21
1151.442033003841
 31
0.0
  0
LINE
  5
F5
330
27
100
AcDbEntity
  8
0
 62
     0
100
AcDbLine
 10
1365.649964133726
 20
1149.528856546823
 30
0.0
 11
1363.560010981412
 21
1151.618809699137
 31
0.0
  0
LINE
  5
F6
330
27
100
AcDbEntity
  8
0
 62
     0
100
AcDbLine
 10
1365.826740829023
 20
1149.528856546823
 30
0.0
 11
1363.560010981412
 21
1151.795586394434
 31
0.0
  0
LINE
  5
F7
330
27
100
AcDbEntity
  8
0
 62
     0
100
AcDbLine
 10
1366.003517524319
 20
1149.528856546823
 30
0.0
 11
1363.560010981412
 21
1151.972363089731
 31
0.0
  0
LINE
  5
F8
330
27
100
AcDbEntity
  8
0
 62
     0
100
AcDbLine
 10
1366.180294219616
 20
1149.528856546823
 30
0.0
 11
1363.560010981412
 21
1152.149139785027
 31
0.0
  0
LINE
  5
F9
330
27
100
AcDbEntity
  8
0
 62
     0
100
AcDbLine
 10
1366.357070914913
 20
1149.528856546823
 30
0.0
 11
1363.560010981412
 21
1152.325916480324
 31
0.0
  0
LINE
  5
FA
330
27
100
AcDbEntity
  8
0
 62
     0
100
AcDbLine
 10
1366.533847610209
 20
1149.528856546823
 30
0.0
 11
1363.560010981412
 21
1152.502693175621
 31
0.0
  0
LINE
  5
FB
330
27
100
AcDbEntity
  8
0
 62
     0
100
AcDbLine
 10
1366.710624305506
 20
1149.528856546823
 30
0.0
 11
1363.560010981412
 21
1152.679469870917
 31
0.0
  0
LINE
  5
FC
330
27
100
AcDbEntity
  8
0
 62
     0
100
AcDbLine
 10
1366.887401000803
 20
1149.528856546823
 30
0.0
 11
1363.560010981412
 21
1152.856246566214
 31
0.0
  0
LINE
  5
FD
330
27
100
AcDbEntity
  8
0
 62
     0
100
AcDbLine
 10
1367.064177696099
 20
1149.528856546823
 30
0.0
 11
1363.560010981412
 21
1153.033023261511
 31
0.0
  0
LINE
  5
FE
330
27
100
AcDbEntity
  8
0
 62
     0
100
AcDbLine
 10
1367.240954391396
 20
1149.528856546823
 30
0.0
 11
1363.560010981412
 21
1153.209799956807
 31
0.0
  0
LINE
  5
FF
330
27
100
AcDbEntity
  8
0
 62
     0
100
AcDbLine
 10
1367.417731086693
 20
1149.528856546823
 30
0.0
 11
1363.560010981412
 21
1153.386576652104
 31
0.0
  0
LINE
  5
100
330
27
100
AcDbEntity
  8
0
 62
     0
100
AcDbLine
 10
1367.559860928033
 20
1149.56350340078
 30
0.0
 11
1363.594657835369
 21
1153.528706493443
 31
0.0
  0
LINE
  5
101
330
27
100
AcDbEntity
  8
0
 62
     0
100
AcDbLine
 10
1367.554111095613
 20
1149.746029928496
 30
0.0
 11
1363.777184363085
 21
1153.522956661024
 31
0.0
  0
LINE
  5
102
330
27
100
AcDbEntity
  8
0
 62
     0
100
AcDbLine
 10
1367.539044166594
 20
1149.937873552811
 30
0.0
 11
1363.9690279874
 21
1153.507889732005
 31
0.0
  0
LINE
  5
103
330
27
100
AcDbEntity
  8
0
 62
     0
100
AcDbLine
 10
1367.512929999054
 20
1150.140764415648
 30
0.0
 11
1364.171918850237
 21
1153.481775564465
 31
0.0
  0
LINE
  5
104
330
27
100
AcDbEntity
  8
0
 62
     0
100
AcDbLine
 10
1367.473310379532
 20
1150.357160730467
 30
0.0
 11
1364.388315165056
 21
1153.442155944943
 31
0.0
  0
LINE
  5
105
330
27
100
AcDbEntity
  8
0
 62
     0
100
AcDbLine
 10
1367.416478423322
 20
1150.590769381973
 30
0.0
 11
1364.621923816563
 21
1153.385323988733
 31
0.0
  0
LINE
  5
106
330
27
100
AcDbEntity
  8
0
 62
     0
100
AcDbLine
 10
1367.336346504903
 20
1150.847677995689
 30
0.0
 11
1364.878832430278
 21
1153.305192070313
 31
0.0
  0
LINE
  5
107
330
27
100
AcDbEntity
  8
0
 62
     0
100
AcDbLine
 10
1367.221491760024
 20
1151.139309435865
 30
0.0
 11
1365.170463870454
 21
1153.190337325435
 31
0.0
  0
LINE
  5
108
330
27
100
AcDbEntity
  8
0
 62
     0
100
AcDbLine
 10
1367.044556168842
 20
1151.493021722344
 30
0.0
 11
1365.524176156933
 21
1153.013401734253
 31
0.0
  0
LINE
  5
109
330
27
100
AcDbEntity
  8
0
 62
     0
100
AcDbLine
 10
1366.67020003388
 20
1152.044154552601
 30
0.0
 11
1366.075308987191
 21
1152.639045599291
 31
0.0
  0
ENDBLK
  5
10A
330
27
100
AcDbEntity
  8
0
100
AcDbBlockEnd
  0
BLOCK
  5
24D
330
243
100
AcDbEntity
  8
0
100
AcDbBlockBegin
  2
*D5
 70
     1
 10
0.0
 20
0.0
 30
0.0
  3
*D5
  1

  0
LINE
  5
244
330
243
100
AcDbEntity
  8
BEM
 62
     0
370
    -2
100
AcDbLine
 10
579.3112580926754
 20
571.8653515270502
 30
0.0
 11
545.150187470712
 21
571.8653515270502
 31
0.0
  0
LINE
  5
245
330
243
100
AcDbEntity
  8
BEM
 62
     0
370
    -2
100
AcDbLine
 10
741.2612580926754
 20
861.8653515270501
 30
0.0
 11
545.1501874707121
 21
861.8653515270501
 31
0.0
  0
LINE
  5
246
330
243
100
AcDbEntity
  8
BEM
 62
     0
370
    -2
100
AcDbLine
 10
550.150187470712
 20
589.3653515270503
 30
0.0
 11
550.1501874707121
 21
844.3653515270501
 31
0.0
  0
SOLID
  5
247
330
243
100
AcDbEntity
  8
BEM
 62
     0
100
AcDbTrace
 10
547.2335208040454
 20
589.3653515270503
 30
0.0
 11
553.0668541373786
 21
589.3653515270503
 31
0.0
 12
550.150187470712
 22
571.8653515270502
 32
0.0
 13
550.150187470712
 23
571.8653515270502
 33
0.0
  0
SOLID
  5
248
330
243
100
AcDbEntity
  8
BEM
 62
     0
100
AcDbTrace
 10
547.2335208040455
 20
844.3653515270501
 30
0.0
 11
553.0668541373787
 21
844.3653515270501
 31
0.0
 12
550.1501874707121
 22
861.8653515270501
 32
0.0
 13
550.1501874707121
 23
861.8653515270501
 33
0.0
  0
MTEXT
  5
249
330
243
100
AcDbEntity
  8
BEM
 62
     1
100
AcDbMText
 10
533.9001874707118
 20
716.8653515270502
 30
0.0
 40
17.5
 41
0.0
 71
     5
 72
     1
  1
\A1;290
  7
GREEKS
 11
0.0000000000000001
 21
1.0
 31
0.0
 73
     1
 44
1.0
  0
POINT
  5
24A
330
243
100
AcDbEntity
  8
DEFPOINTS
 62
     0
100
AcDbPoint
 10
584.3112580926754
 20
571.8653515270502
 30
0.0
  0
POINT
  5
24B
330
243
100
AcDbEntity
  8
DEFPOINTS
 62
     0
100
AcDbPoint
 10
746.2612580926754
 20
861.8653515270501
 30
0.0
  0
POINT
  5
24C
330
243
100
AcDbEntity
  8
DEFPOINTS
 62
     0
100
AcDbPoint
 10
550.1501874707121
 20
861.8653515270501
 30
0.0
  0
ENDBLK
  5
24E
330
243
100
AcDbEntity
  8
0
100
AcDbBlockEnd
  0
BLOCK
  5
259
330
24F
100
AcDbEntity
  8
0
100
AcDbBlockBegin
  2
*D6
 70
     1
 10
0.0
 20
0.0
 30
0.0
  3
*D6
  1

  0
LINE
  5
250
330
24F
100
AcDbEntity
  8
BEM
 62
     0
370
    -2
100
AcDbLine
 10
579.3112580926754
 20
571.8653515270502
 30
0.0
 11
510.1501874707119
 21
571.8653515270502
 31
0.0
  0
LINE
  5
251
330
24F
100
AcDbEntity
  8
BEM
 62
     0
370
    -2
100
AcDbLine
 10
579.3112580926754
 20
1151.86535152705
 30
0.0
 11
510.1501874707121
 21
1151.86535152705
 31
0.0
  0
LINE
  5
252
330
24F
100
AcDbEntity
  8
BEM
 62
     0
370
    -2
100
AcDbLine
 10
515.150187470712
 20
589.3653515270503
 30
0.0
 11
515.1501874707121
 21
1134.36535152705
 31
0.0
  0
SOLID
  5
253
330
24F
100
AcDbEntity
  8
BEM
 62
     0
100
AcDbTrace
 10
512.2335208040453
 20
589.3653515270503
 30
0.0
 11
518.0668541373786
 21
589.3653515270503
 31
0.0
 12
515.150187470712
 22
571.8653515270502
 32
0.0
 13
515.150187470712
 23
571.8653515270502
 33
0.0
  0
SOLID
  5
254
330
24F
100
AcDbEntity
  8
BEM
 62
     0
100
AcDbTrace
 10
512.2335208040454
 20
1134.36535152705
 30
0.0
 11
518.0668541373787
 21
1134.36535152705
 31
0.0
 12
515.1501874707121
 22
1151.86535152705
 32
0.0
 13
515.1501874707121
 23
1151.86535152705
 33
0.0
  0
MTEXT
  5
255
330
24F
100
AcDbEntity
  8
BEM
 62
     1
100
AcDbMText
 10
498.900187470712
 20
861.8653515270505
 30
0.0
 40
17.5
 41
0.0
 71
     5
 72
     1
  1
\A1;580
  7
GREEKS
 11
0.0000000000000001
 21
1.0
 31
0.0
 73
     1
 44
1.0
  0
POINT
  5
256
330
24F
100
AcDbEntity
  8
DEFPOINTS
 62
     0
100
AcDbPoint
 10
584.3112580926754
 20
571.8653515270502
 30
0.0
  0
POINT
  5
257
330
24F
100
AcDbEntity
  8
DEFPOINTS
 62
     0
100
AcDbPoint
 10
584.3112580926754
 20
1151.86535152705
 30
0.0
  0
POINT
  5
258
330
24F
100
AcDbEntity
  8
DEFPOINTS
 62
     0
100
AcDbPoint
 10
515.1501874707121
 20
1151.86535152705
 30
0.0
  0
ENDBLK
  5
25A
330
24F
100
AcDbEntity
  8
0
100
AcDbBlockEnd
  0
BLOCK
  5
281
330
277
100
AcDbEntity
  8
0
100
AcDbBlockBegin
  2
*D7
 70
     1
 10
0.0
 20
0.0
 30
0.0
  3
*D7
  1

  0
LINE
  5
28C
330
277
100
AcDbEntity
  8
BEM
 62
     0
370
    -2
100
AcDbLine
 10
908.2112580926752
 20
1156.865351527049
 30
0.0
 11
908.2112580926752
 21
1191.490537205879
 31
0.0
  0
LINE
  5
28D
330
277
100
AcDbEntity
  8
BEM
 62
     0
370
    -2
100
AcDbLine
 10
584.3112580926754
 20
1156.865351527049
 30
0.0
 11
584.3112580926754
 21
1191.490537205879
 31
0.0
  0
LINE
  5
28E
330
277
100
AcDbEntity
  8
BEM
 62
     0
370
    -2
100
AcDbLine
 10
890.7112580926753
 20
1186.49053720588
 30
0.0
 11
601.8112580926754
 21
1186.49053720588
 31
0.0
  0
SOLID
  5
28F
330
277
100
AcDbEntity
  8
BEM
 62
     0
100
AcDbTrace
 10
890.7112580926753
 20
1189.407203872546
 30
0.0
 11
890.7112580926753
 21
1183.573870539213
 31
0.0
 12
908.2112580926752
 22
1186.49053720588
 32
0.0
 13
908.2112580926752
 23
1186.49053720588
 33
0.0
  0
SOLID
  5
290
330
277
100
AcDbEntity
  8
BEM
 62
     0
100
AcDbTrace
 10
601.8112580926754
 20
1189.407203872546
 30
0.0
 11
601.8112580926754
 21
1183.573870539213
 31
0.0
 12
584.3112580926754
 22
1186.49053720588
 32
0.0
 13
584.3112580926754
 23
1186.49053720588
 33
0.0
  0
MTEXT
  5
291
330
277
100
AcDbEntity
  8
BEM
 62
     1
100
AcDbMText
 10
746.2612580926753
 20
1202.74053720588
 30
0.0
 40
17.5
 41
0.0
 71
     5
 72
     1
  1
\A1;%%c324
  7
GREEKS
 73
     1
 44
1.0
  0
POINT
  5
292
330
277
100
AcDbEntity
  8
DEFPOINTS
 62
     0
100
AcDbPoint
 10
908.2112580926752
 20
1151.86535152705
 30
0.0
  0
POINT
  5
293
330
277
100
AcDbEntity
  8
DEFPOINTS
 62
     0
100
AcDbPoint
 10
584.3112580926754
 20
1151.86535152705
 30
0.0
  0
POINT
  5
294
330
277
100
AcDbEntity
  8
DEFPOINTS
 62
     0
100
AcDbPoint
 10
584.3112580926754
 20
1186.49053720588
 30
0.0
  0
ENDBLK
  5
282
330
277
100
AcDbEntity
  8
0
100
AcDbBlockEnd
  0
ENDSEC
  0
SECTION
  2
ENTITIES
  0
DIMENSION
  5
13A
330
20
100
AcDbEntity
  8
BEM
100
AcDbDimension
  2
*D6
 10
515.1501874707121
 20
1151.86535152705
 30
0.0
 11
498.900187470712
 21
861.8653515270505
 31
0.0
 70
    32
 71
     5
 42
580.0000000000001
  3
Standard
100
AcDbAlignedDimension
 13
584.3112580926754
 23
571.8653515270502
 33
0.0
 14
584.3112580926754
 24
1151.86535152705
 34
0.0
 50
90.0
100
AcDbRotatedDimension
1001
ACAD
1000
DSTYLE
1002
{
1070
    40
1040
5.0
1070
    41
1040
3.5
1070
    42
1040
1.0
1070
    43
1040
7.0
1070
    44
1040
1.0
1070
    47
1040
6.0
1070
    48
1040
6.0
1070
    73
1070
     0
1070
    74
1070
     0
1070
    77
1070
     1
1070
    78
1070
     8
1070
    79
1070
     2
1070
   140
1040
3.5
1070
   141
1040
1.5
1070
   146
1040
0.5
1070
   147
1040
1.5
1070
   172
1070
     1
1070
   178
1070
     1
1070
   179
1070
     2
1070
   271
1070
     2
1070
   272
1070
     2
1070
   284
1070
     8
1070
   285
1070
     8
1070
   286
1070
     8
1070
   340
1005
2C
1002
}
  0
DIMENSION
  5
13B
330
20
100
AcDbEntity
  8
BEM
100
AcDbDimension
  2
*D5
 10
550.1501874707121
 20
861.8653515270501
 30
0.0
 11
533.9001874707118
 21
716.8653515270502
 31
0.0
 70
    32
 71
     5
 42
289.9999999999999
  3
Standard
100
AcDbAlignedDimension
 13
584.3112580926754
 23
571.8653515270502
 33
0.0
 14
746.2612580926754
 24
861.8653515270501
 34
0.0
 50
90.0
100
AcDbRotatedDimension
1001
ACAD
1000
DSTYLE
1002
{
1070
    40
1040
5.0
1070
    41
1040
3.5
1070
    42
1040
1.0
1070
    43
1040
7.0
1070
    44
1040
1.0
1070
    47
1040
6.0
1070
    48
1040
6.0
1070
    73
1070
     0
1070
    74
1070
     0
1070
    77
1070
     1
1070
    78
1070
     8
1070
    79
1070
     2
1070
   140
1040
3.5
1070
   141
1040
1.5
1070
   146
1040
0.5
1070
   147
1040
1.5
1070
   172
1070
     1
1070
   178
1070
     1
1070
   179
1070
     2
1070
   271
1070
     2
1070
   272
1070
     2
1070
   284
1070
     8
1070
   285
1070
     8
1070
   286
1070
     8
1070
   340
1005
2C
1002
}
  0
TEXT
  5
13D
330
20
100
AcDbEntity
  8
TEXT
 62
     1
100
AcDbText
 10
478.6674728771919
 20
348.4411278615431
 30
0.0
 40
17.5
  1
Werkstoff: EN 10219 S235, E195 EN10305
 41
0.8
  7
GREEKS
100
AcDbText
  0
INSERT
  5
13E
330
20
100
AcDbEntity
  8
STEMPEL
100
AcDbBlockReference
  2
LOGO
 10
377.4888713644485
 20
112.552631911208
 30
0.0
 41
5.0
 42
5.0
 43
5.0
  0
TEXT
  5
13F
330
20
100
AcDbEntity
  8
TEXT
100
AcDbText
 10
511.0540121453142
 20
157.7240979930877
 30
0.0
 40
10.0
  1
Koeh
 41
0.8
  7
GREEKS
 72
     1
 11
524.1968692881714
 21
157.7240979930877
 31
0.0
100
AcDbText
  0
LINE
  5
140
330
20
100
AcDbEntity
  8
HILF
100
AcDbLine
 10
1050.0
 20
0.0
 30
0.0
 11
0.0
 21
0.0
 31
0.0
  0
LINE
  5
141
330
20
100
AcDbEntity
  8
HILF
100
AcDbLine
 10
1050.0
 20
1485.0
 30
0.0
 11
0.0
 21
1485.0
 31
0.0
  0
LINE
  5
142
330
20
100
AcDbEntity
  8
STEMPEL
100
AcDbLine
 10
1025.0
 20
25.0
 30
0.0
 11
99.99999999999971
 21
25.0
 31
0.0
  0
LINE
  5
143
330
20
100
AcDbEntity
  8
STEMPEL
100
AcDbLine
 10
124.9999999999997
 20
25.0
 30
0.0
 11
1025.0
 21
25.0
 31
0.0
  0
TEXT
  5
144
330
20
100
AcDbEntity
  8
TEXT
100
AcDbText
 10
506.1566460565737
 20
183.2740272978806
 30
0.0
 40
10.0
  1
Name
 41
0.8
  7
GREEKS
100
AcDbText
  0
TEXT
  5
145
330
20
100
AcDbEntity
  8
TEXT
100
AcDbText
 10
485.7147386835128
 20
256.0460421087048
 30
0.0
 40
12.5
  1
Zul. Abw.
 41
0.8
  7
GREEKS
100
AcDbText
  0
LINE
  5
146
330
20
100
AcDbEntity
  8
HILF
100
AcDbLine
 10
365.0000000000003
 20
124.9999999999999
 30
0.0
 11
575.0
 21
124.9999999999999
 31
0.0
  0
LINE
  5
147
330
20
100
AcDbEntity
  8
HILF
100
AcDbLine
 10
365.0000000000003
 20
149.9999999999999
 30
0.0
 11
575.0
 21
149.9999999999999
 31
0.0
  0
LINE
  5
148
330
20
100
AcDbEntity
  8
HILF
100
AcDbLine
 10
365.0000000000003
 20
174.9999999999998
 30
0.0
 11
575.0
 21
174.9999999999998
 31
0.0
  0
LINE
  5
149
330
20
100
AcDbEntity
  8
STEMPEL
100
AcDbLine
 10
1025.0
 20
200.0
 30
0.0
 11
365.0000000000003
 21
199.9999999999998
 31
0.0
  0
LINE
  5
14A
330
20
100
AcDbEntity
  8
STEMPEL
100
AcDbLine
 10
1025.0
 20
100.0
 30
0.0
 11
365.0000000000003
 21
99.99999999999992
 31
0.0
  0
LINE
  5
14B
330
20
100
AcDbEntity
  8
STEMPEL
100
AcDbLine
 10
1025.0
 20
275.0000000000001
 30
0.0
 11
99.99999999999992
 21
275.0
 31
0.0
  0
LINE
  5
14C
330
20
100
AcDbEntity
  8
STEMPEL
100
AcDbLine
 10
132.378031972936
 20
1151.86535152705
 30
0.0
 11
132.378031972936
 21
571.8653515270502
 31
0.0
  0
LINE
  5
14D
330
20
100
AcDbEntity
  8
MITTEL
100
AcDbLine
 10
294.3280319729361
 20
1161.86535152705
 30
0.0
 11
294.3280319729361
 21
561.8653515270502
 31
0.0
  0
LINE
  5
14E
330
20
100
AcDbEntity
  8
STEMPEL
100
AcDbLine
 10
456.2780319729356
 20
1151.86535152705
 30
0.0
 11
456.2780319729356
 21
571.8653515270502
 31
0.0
  0
LINE
  5
14F
330
20
100
AcDbEntity
  8
HILF
100
AcDbLine
 10
0.0
 20
0.0
 30
0.0
 11
-0.0000000000002842
 21
1485.0
 31
0.0
  0
LINE
  5
150
330
20
100
AcDbEntity
  8
STEMPEL
100
AcDbLine
 10
100.0
 20
25.0
 30
0.0
 11
99.99999999999971
 21
1460.0
 31
0.0
  0
LINE
  5
151
330
20
100
AcDbEntity
  8
STEMPEL
100
AcDbLine
 10
456.2780319729356
 20
571.8653515270502
 30
0.0
 11
132.378031972936
 21
571.8653515270502
 31
0.0
  0
TEXT
  5
152
330
20
100
AcDbEntity
  8
TEXT
 62
     1
100
AcDbText
 10
187.8685074085588
 20
398.154950726187
 30
0.0
 40
17.5
  1
Rohrenden leicht entgratet
 41
0.8
  7
GREEKS
100
AcDbText
  0
TEXT
  5
153
330
20
100
AcDbEntity
  8
TEXT
100
AcDbText
 10
104.6377487744418
 20
279.1799999999999
 30
0.0
 40
12.5
  1
Erstellt mit AUTOCAD 2004
 41
0.8
  7
GREEKS
100
AcDbText
  0
TEXT
  5
154
330
20
100
AcDbEntity
  8
TEXT
100
AcDbText
 10
168.8428816785219
 20
46.68454737460329
 30
0.0
 40
10.0
  1
Änderung
 41
0.8
  7
GREEKS
 72
     1
 11
195.7000245356648
 21
46.68454737460329
 31
0.0
100
AcDbText
  0
LINE
  5
155
330
20
100
AcDbEntity
  8
HILF
100
AcDbLine
 10
100.0000000000002
 20
99.99999999999992
 30
0.0
 11
365.0000000000003
 21
99.99999999999992
 31
0.0
  0
LINE
  5
156
330
20
100
AcDbEntity
  8
HILF
100
AcDbLine
 10
100.0000000000002
 20
124.9999999999999
 30
0.0
 11
365.0000000000003
 21
124.9999999999999
 31
0.0
  0
LINE
  5
157
330
20
100
AcDbEntity
  8
HILF
100
AcDbLine
 10
100.0000000000002
 20
149.9999999999999
 30
0.0
 11
365.0000000000003
 21
149.9999999999999
 31
0.0
  0
LINE
  5
158
330
20
100
AcDbEntity
  8
HILF
100
AcDbLine
 10
100.0000000000002
 20
174.9999999999998
 30
0.0
 11
365.0000000000003
 21
174.9999999999998
 31
0.0
  0
LINE
  5
159
330
20
100
AcDbEntity
  8
HILF
100
AcDbLine
 10
100.0000000000002
 20
199.9999999999998
 30
0.0
 11
365.0000000000003
 21
199.9999999999998
 31
0.0
  0
LINE
  5
15A
330
20
100
AcDbEntity
  8
HILF
100
AcDbLine
 10
100.0000000000002
 20
225.0000000000001
 30
0.0
 11
365.0000000000003
 21
225.0000000000001
 31
0.0
  0
LINE
  5
15B
330
20
100
AcDbEntity
  8
HILF
100
AcDbLine
 10
100.0000000000002
 20
250.0000000000001
 30
0.0
 11
365.0000000000003
 21
250.0000000000001
 31
0.0
  0
LINE
  5
15C
330
20
100
AcDbEntity
  8
STEMPEL
100
AcDbLine
 10
364.9999999999997
 20
74.99999999999992
 30
0.0
 11
99.99999999999992
 21
74.99999999999992
 31
0.0
  0
TEXT
  5
15D
330
20
100
AcDbEntity
  8
TEXT
100
AcDbText
 10
120.6660276761439
 20
34.13664615067979
 30
0.0
 40
10.0
  1
Index
 50
90.0
 41
0.8
  7
GREEKS
100
AcDbText
  0
LINE
  5
15E
330
20
100
AcDbEntity
  8
VOLL
100
AcDbLine
 10
135.0000000000002
 20
275.0000000000001
 30
0.0
 11
134.9999999999999
 21
24.99999999999993
 31
0.0
  0
LINE
  5
15F
330
20
100
AcDbEntity
  8
HILF
100
AcDbLine
 10
77.7191783928464
 20
742.5000000000001
 30
0.0
 11
0.0000000000002842
 21
742.5000000000001
 31
0.0
  0
TEXT
  5
160
330
20
100
AcDbEntity
  8
TEXT
100
AcDbText
 10
274.3066798709707
 20
46.67890673349525
 30
0.0
 40
10.0
  1
Tag
 41
0.8
  7
GREEKS
 72
     1
 11
283.6400132043039
 21
46.67890673349525
 31
0.0
100
AcDbText
  0
LINE
  5
161
330
20
100
AcDbEntity
  8
VOLL
100
AcDbLine
 10
310.0000000000003
 20
274.9999999999999
 30
0.0
 11
310.0
 21
24.99999999999993
 31
0.0
  0
LINE
  5
162
330
20
100
AcDbEntity
  8
VOLL
100
AcDbLine
 10
260.0000000000003
 20
274.9999999999999
 30
0.0
 11
260.0
 21
24.99999999999993
 31
0.0
  0
LINE
  5
163
330
20
100
AcDbEntity
  8
STEMPEL
100
AcDbLine
 10
365.0000000000003
 20
274.9999999999999
 30
0.0
 11
365.0
 21
24.99999999999993
 31
0.0
  0
TEXT
  5
164
330
20
100
AcDbEntity
  8
TEXT
100
AcDbText
 10
322.1693255033624
 20
46.4831054241602
 30
0.0
 40
10.0
  1
Name
 41
0.8
  7
GREEKS
 72
     1
 11
337.9788493128862
 21
46.4831054241602
 31
0.0
100
AcDbText
  0
TEXT
  5
165
330
20
100
AcDbEntity
  8
TEXT
100
AcDbText
 10
425.9974927705902
 20
157.7691260206433
 30
0.0
 40
10.0
  1
06.04.
 41
0.8
  7
GREEKS
 72
     1
 11
443.5213022943996
 21
157.7691260206433
 31
0.0
100
AcDbText
  0
TEXT
  5
166
330
20
100
AcDbEntity
  8
TEXT
100
AcDbText
 10
368.9590317919039
 20
159.0747592404491
 30
0.0
 40
10.0
  1
Gez.
 41
0.8
  7
GREEKS
100
AcDbText
  0
LINE
  5
167
330
20
100
AcDbEntity
  8
VOLL
100
AcDbLine
 10
410.0000000000003
 20
199.9999999999998
 30
0.0
 11
410.0000000000003
 21
99.99999999999992
 31
0.0
  0
TEXT
  5
168
330
20
100
AcDbEntity
  8
TEXT
100
AcDbText
 10
369.0016943468259
 20
108.8236597412452
 30
0.0
 40
10.0
  1
Norm.
 41
0.8
  7
GREEKS
100
AcDbText
  0
TEXT
  5
169
330
20
100
AcDbEntity
  8
TEXT
100
AcDbText
 10
368.8787716429181
 20
134.2231572857094
 30
0.0
 40
10.0
  1
Gepr.
 41
0.8
  7
GREEKS
100
AcDbText
  0
TEXT
  5
16A
330
20
100
AcDbEntity
  8
TEXT
 62
     1
100
AcDbText
 10
401.2515766204717
 20
220.372535722849
 30
0.0
 40
17.5
  1
1:5
 41
0.8
  7
GREEKS
100
AcDbText
  0
TEXT
  5
16B
330
20
100
AcDbEntity
  8
TEXT
100
AcDbText
 10
383.7908930375943
 20
256.1552237717722
 30
0.0
 40
12.5
  1
Maßstab
 41
0.8
  7
GREEKS
100
AcDbText
  0
TEXT
  5
16C
330
20
100
AcDbEntity
  8
TEXT
100
AcDbText
 10
371.55527455526
 20
182.8506367787916
 30
0.0
 40
10.0
  1
2011
 41
0.8
  7
GREEKS
100
AcDbText
  0
TEXT
  5
16D
330
20
100
AcDbEntity
  8
TEXT
100
AcDbText
 10
430.8279182884127
 20
183.2970125307481
 30
0.0
 40
10.0
  1
Tag
 41
0.8
  7
GREEKS
100
AcDbText
  0
LINE
  5
16E
330
20
100
AcDbEntity
  8
VOLL
100
AcDbLine
 10
475.0000000000002
 20
274.9999999999996
 30
0.0
 11
475.0
 21
99.99999999999992
 31
0.0
  0
CIRCLE
  5
16F
330
20
100
AcDbEntity
  8
STEMPEL
100
AcDbCircle
 10
294.328031972936
 20
861.8653515270503
 30
0.0
 40
95.0
  0
LINE
  5
170
330
20
100
AcDbEntity
  8
MITTEL
100
AcDbLine
 10
194.328031972936
 20
861.8653515270503
 30
0.0
 11
394.3280319729361
 21
861.8653515270503
 31
0.0
  0
LINE
  5
171
330
20
100
AcDbEntity
  8
STEMPEL
100
AcDbLine
 10
456.2780319729359
 20
1151.86535152705
 30
0.0
 11
132.378031972936
 21
1151.86535152705
 31
0.0
  0
CIRCLE
  5
172
330
20
100
AcDbEntity
  8
HILF
100
AcDbCircle
 10
294.328031972936
 20
861.8653515270503
 30
0.0
 40
89.0
  0
ARC
  5
173
330
20
100
AcDbEntity
  8
STEMPEL
100
AcDbCircle
 10
278.7242792135544
 20
925.8653515270504
 30
0.0
 40
10.64900662251655
100
AcDbArc
 50
270.0
 51
336.4435356908999
  0
ARC
  5
174
330
20
100
AcDbEntity
  8
STEMPEL
100
AcDbCircle
 10
278.7242792135544
 20
925.8653515270504
 30
0.0
 40
10.64900662251655
100
AcDbArc
 50
23.5564643091001
 51
213.7489885958886
  0
CIRCLE
  5
175
330
20
100
AcDbEntity
  8
STEMPEL
100
AcDbCircle
 10
278.7242792135544
 20
925.8653515270504
 30
0.0
 40
5.916114790286974
  0
CIRCLE
  5
177
330
20
100
AcDbEntity
  8
HILF
100
AcDbCircle
 10
294.328031972936
 20
861.8653515270503
 30
0.0
 40
45.0
  0
ARC
  5
178
330
20
100
AcDbEntity
  8
STEMPEL
100
AcDbCircle
 10
265.1911666307726
 20
919.5794795623704
 30
0.0
 40
4.363134657836644
100
AcDbArc
 50
180.0
 51
270.0
  0
LINE
  5
179
330
20
100
AcDbEntity
  8
STEMPEL
100
AcDbLine
 10
265.1911666307726
 20
915.2163449045339
 30
0.0
 11
278.7242792135544
 21
915.2163449045339
 31
0.0
  0
ARC
  5
17A
330
20
100
AcDbEntity
  8
STEMPEL
100
AcDbCircle
 10
263.1944778890506
 20
932.742834970759
 30
0.0
 40
2.366445916114781
100
AcDbArc
 50
0.0
 51
180.0
  0
LINE
  5
17B
330
20
100
AcDbEntity
  8
STEMPEL
100
AcDbLine
 10
260.828031972936
 20
932.742834970759
 30
0.0
 11
260.828031972936
 21
919.5794795623704
 31
0.0
  0
ARC
  5
17C
330
20
100
AcDbEntity
  8
STEMPEL
100
AcDbCircle
 10
266.3004381539513
 20
920.6887510855493
 30
0.0
 40
0.7395143487858719
100
AcDbArc
 50
180.0000000000001
 51
270.0
  0
LINE
  5
17D
330
20
100
AcDbEntity
  8
STEMPEL
100
AcDbLine
 10
266.3004381539513
 20
919.9492367367636
 30
0.0
 11
269.8698493711222
 21
919.9492367367636
 31
0.0
  0
LINE
  5
17E
330
20
100
AcDbEntity
  8
STEMPEL
100
AcDbLine
 10
265.5609238051654
 20
932.742834970759
 30
0.0
 11
265.5609238051654
 21
920.6887510855493
 31
0.0
  0
ARC
  5
180
330
20
100
AcDbEntity
  8
STEMPEL
100
AcDbCircle
 10
317.1790253504194
 20
925.8653515270504
 30
0.0
 40
10.64900662251655
100
AcDbArc
 50
270.0
 51
213.7489885958876
  0
ARC
  5
181
330
20
100
AcDbEntity
  8
STEMPEL
100
AcDbCircle
 10
305.5450037376047
 20
919.5794795623704
 30
0.0
 40
4.363134657836644
100
AcDbArc
 50
189.9999999999999
 51
270.0
  0
ARC
  5
182
330
20
100
AcDbEntity
  8
STEMPEL
100
AcDbCircle
 10
305.5450037376047
 20
919.5794795623704
 30
0.0
 40
4.363134657836644
100
AcDbArc
 50
189.9999999999999
 51
270.0
  0
ARC
  5
183
330
20
100
AcDbEntity
  8
STEMPEL
100
AcDbCircle
 10
290.8523145336421
 20
917.5827908206484
 30
0.0
 40
2.366445916114781
100
AcDbArc
 50
180.0
 51
0.0
  0
LINE
  5
184
330
20
100
AcDbEntity
  8
STEMPEL
100
AcDbLine
 10
305.5450037376047
 20
915.2163449045339
 30
0.0
 11
317.1790253504194
 21
915.2163449045339
 31
0.0
  0
LINE
  5
185
330
20
100
AcDbEntity
  8
STEMPEL
100
AcDbLine
 10
305.7703295754864
 20
920.5603357665239
 30
0.0
 11
305.1078903345224
 21
924.3172153904041
 31
0.0
  0
ARC
  5
186
330
20
100
AcDbEntity
  8
STEMPEL
100
AcDbCircle
 10
299.2088266749229
 20
923.2770513063
 30
0.0
 40
5.990066225165579
100
AcDbArc
 50
10.00000000000029
 51
37.22440007751364
  0
ARC
  5
187
330
20
100
AcDbEntity
  8
STEMPEL
100
AcDbCircle
 10
299.2088266749229
 20
930.5242919244015
 30
0.0
 40
5.990066225165579
100
AcDbArc
 50
322.7755999224855
 51
90.0
  0
LINE
  5
188
330
20
100
AcDbEntity
  8
STEMPEL
100
AcDbLine
 10
293.2187604497569
 20
929.2671175314655
 30
0.0
 11
299.2088266749229
 21
929.2671175314655
 31
0.0
  0
LINE
  5
189
330
20
100
AcDbEntity
  8
STEMPEL
100
AcDbLine
 10
293.2187604497569
 20
931.7814663173376
 30
0.0
 11
299.2088266749229
 21
931.7814663173376
 31
0.0
  0
LINE
  5
18A
330
20
100
AcDbEntity
  8
STEMPEL
100
AcDbLine
 10
289.2253829663136
 20
936.514358149567
 30
0.0
 11
299.2088266749229
 21
936.514358149567
 31
0.0
  0
LINE
  5
18B
330
20
100
AcDbEntity
  8
STEMPEL
100
AcDbLine
 10
293.2187604497569
 20
924.5342256992358
 30
0.0
 11
299.2088266749229
 21
924.5342256992358
 31
0.0
  0
LINE
  5
18C
330
20
100
AcDbEntity
  8
STEMPEL
100
AcDbLine
 10
293.2187604497569
 20
931.7814663173376
 30
0.0
 11
293.2187604497569
 21
929.2671175314655
 31
0.0
  0
LINE
  5
18D
330
20
100
AcDbEntity
  8
STEMPEL
100
AcDbLine
 10
288.4858686175276
 20
935.7748438007812
 30
0.0
 11
288.4858686175276
 21
930.1212549980697
 31
0.0
  0
ARC
  5
18E
330
20
100
AcDbEntity
  8
STEMPEL
100
AcDbCircle
 10
289.2253829663136
 20
935.7748438007812
 30
0.0
 40
0.7395143487858719
100
AcDbArc
 50
89.99999999999909
 51
180.0000000000004
  0
LINE
  5
18F
330
20
100
AcDbEntity
  8
STEMPEL
100
AcDbLine
 10
293.2187604497569
 20
924.5342256992358
 30
0.0
 11
293.2187604497571
 21
917.5827908206484
 31
0.0
  0
LINE
  5
190
330
20
100
AcDbEntity
  8
STEMPEL
100
AcDbLine
 10
288.4858686175276
 20
921.6094480560313
 30
0.0
 11
288.4858686175276
 21
917.5827908206484
 31
0.0
  0
LINE
  5
191
330
20
100
AcDbEntity
  8
STEMPEL
100
AcDbLine
 10
301.2702828893257
 20
918.825730941822
 30
0.0
 11
300.446901763974
 21
923.4953573486427
 31
0.0
  0
ARC
  5
192
330
20
100
AcDbEntity
  8
STEMPEL
100
AcDbCircle
 10
299.2088266749229
 20
930.5242919244015
 30
0.0
 40
1.257174392935998
100
AcDbArc
 50
270.0
 51
90.0
  0
ARC
  5
193
330
20
100
AcDbEntity
  8
STEMPEL
100
AcDbCircle
 10
299.2088266749229
 20
923.2770513063
 30
0.0
 40
1.257174392935998
100
AcDbArc
 50
10.00000000000029
 51
90.0
  0
CIRCLE
  5
194
330
20
100
AcDbEntity
  8
STEMPEL
100
AcDbCircle
 10
317.1790253504194
 20
925.8653515270504
 30
0.0
 40
5.916114790286974
  0
LINE
  5
195
330
20
100
AcDbEntity
  8
STEMPEL
100
AcDbLine
 10
306.4986090396346
 20
919.9492367367636
 30
0.0
 11
308.324595507987
 21
919.9492367367636
 31
0.0
  0
ARC
  5
196
330
20
100
AcDbEntity
  8
STEMPEL
100
AcDbCircle
 10
306.4986090396346
 20
920.6887510855493
 30
0.0
 40
0.7395143487858719
100
AcDbArc
 50
190.0000000000001
 51
270.0
  0
LINE
  5
197
330
20
100
AcDbEntity
  8
STEMPEL
100
AcDbLine
 10
908.2112580926748
 20
777.3653515270504
 30
0.0
 11
908.211258092675
 21
571.8653515270502
 31
0.0
  0
LINE
  5
199
330
20
100
AcDbEntity
  8
STEMPEL
100
AcDbLine
 10
584.3112580926754
 20
1151.86535152705
 30
0.0
 11
584.3112580926754
 21
571.8653515270502
 31
0.0
  0
LINE
  5
19A
330
20
100
AcDbEntity
  8
MITTEL
100
AcDbLine
 10
746.2612580926754
 20
1161.86535152705
 30
0.0
 11
746.2612580926754
 21
561.8653515270502
 31
0.0
  0
LINE
  5
19C
330
20
100
AcDbEntity
  8
HILF
100
AcDbLine
 10
1050.0
 20
-0.0000000000002842
 30
0.0
 11
1050.0
 21
1485.0
 31
0.0
  0
LINE
  5
19D
330
20
100
AcDbEntity
  8
STEMPEL
100
AcDbLine
 10
1025.0
 20
25.0
 30
0.0
 11
1025.0
 21
1460.0
 31
0.0
  0
LINE
  5
1A1
330
20
100
AcDbEntity
  8
STEMPEL
100
AcDbLine
 10
908.211258092675
 20
571.8653515270502
 30
0.0
 11
584.3112580926754
 21
571.8653515270502
 31
0.0
  0
TEXT
  5
1A2
330
20
100
AcDbEntity
  8
TEXT
 62
     1
100
AcDbText
 10
598.6674728771919
 20
318.4411278615431
 30
0.0
 40
17.5
  1
feuerverzinkt und innen beschichtet
 41
0.8
  7
GREEKS
100
AcDbText
  0
TEXT
  5
1A3
330
20
100
AcDbEntity
  8
TEXT
 62
     1
100
AcDbText
 10
865.4337917921029
 20
220.372535722849
 30
0.0
 40
17.5
  1
00556300W
 41
0.8
  7
GREEKS
 72
     1
 11
925.4337917921029
 21
220.372535722849
 31
0.0
100
AcDbText
  0
TEXT
  5
1A4
330
20
100
AcDbEntity
  8
TEXT
100
AcDbText
 10
843.1002153742515
 20
130.185404446965
 30
0.0
 40
12.5
  1
ersetzt durch:
 41
0.8
  7
GREEKS
100
AcDbText
  0
TEXT
  5
1A5
330
20
100
AcDbEntity
  8
TEXT
100
AcDbText
 10
841.8096540742482
 20
182.9529559274992
 30
0.0
 40
12.5
  1
Ersatz für:
 41
0.8
  7
GREEKS
100
AcDbText
  0
TEXT
  5
1A6
330
20
100
AcDbEntity
  8
TEXT
100
AcDbText
 10
840.4468873940851
 20
255.7830086342841
 30
0.0
 40
12.5
  1
Zeichnungs Nr.
 41
0.8
  7
GREEKS
100
AcDbText
  0
LINE
  5
1A7
330
20
100
AcDbEntity
  8
HILF
100
AcDbLine
 10
583.7274248224712
 20
37.23495645070784
 30
0.0
 11
1012.147209831682
 21
37.23495645070784
 31
0.0
  0
LINE
  5
1A8
330
20
100
AcDbEntity
  8
HILF
100
AcDbLine
 10
841.8096540742482
 20
209.4495909238957
 30
0.0
 11
1012.147209831682
 21
209.4495909238957
 31
0.0
  0
LINE
  5
1A9
330
20
100
AcDbEntity
  8
VOLL
100
AcDbLine
 10
830.0
 20
150.0
 30
0.0
 11
1025.0
 21
150.0
 31
0.0
  0
TEXT
  5
1AA
330
20
100
AcDbEntity
  8
TEXT
100
AcDbText
 10
587.8240977813288
 20
129.100298576054
 30
0.0
 40
12.5
  1
EDV-Art.Nr. 00556.300X
 41
0.8
  7
GREEKS
100
AcDbText
  0
TEXT
  5
1AB
330
20
100
AcDbEntity
  8
TEXT
 62
     1
100
AcDbText
 10
588.1980769231809
 20
218.5437197313445
 30
0.0
 40
17.5
  1
Reinigungsrohr DN300
 41
0.75
  7
GREEKS
100
AcDbText
  0
LINE
  5
1AC
330
20
100
AcDbEntity
  8
HILF
100
AcDbLine
 10
586.9342002742369
 20
124.9999999999999
 30
0.0
 11
812.0884791390775
 21
124.9999999999999
 31
0.0
  0
LINE
  5
1AD
330
20
100
AcDbEntity
  8
HILF
100
AcDbLine
 10
586.9342002742369
 20
149.9999999999999
 30
0.0
 11
812.0884791390775
 21
149.9999999999999
 31
0.0
  0
LINE
  5
1AE
330
20
100
AcDbEntity
  8
HILF
100
AcDbLine
 10
586.9342002742369
 20
174.9999999999998
 30
0.0
 11
812.0884791390775
 21
174.9999999999998
 31
0.0
  0
LINE
  5
1AF
330
20
100
AcDbEntity
  8
HILF
100
AcDbLine
 10
586.9342002742369
 20
210.0939561891034
 30
0.0
 11
812.0884791390777
 21
210.0939561891034
 31
0.0
  0
LINE
  5
1B0
330
20
100
AcDbEntity
  8
STEMPEL
100
AcDbLine
 10
575.0
 20
275.0000000000001
 30
0.0
 11
575.0
 21
24.99999999999993
 31
0.0
  0
TEXT
  5
1B1
330
20
100
AcDbEntity
  8
TEXT
100
AcDbText
 10
587.4593753944567
 20
106.5743538255658
 30
0.0
 40
10.0
  1
00556300W.DWG
 41
0.8
  7
GREEKS
100
AcDbText
  0
TEXT
  5
1B2
330
20
100
AcDbEntity
  8
TEXT
100
AcDbText
 10
587.8240977813288
 20
178.7583604396322
 30
0.0
 40
12.5
  1
Muffenlos
 41
0.8
  7
GREEKS
100
AcDbText
  0
TEXT
  5
1B3
330
20
100
AcDbEntity
  8
TEXT
100
AcDbText
 10
586.8555959778399
 20
77.11401425482641
 30
0.0
 40
12.5
  1
Bauvorhaben
 41
0.8
  7
GREEKS
100
AcDbText
  0
TEXT
  5
1B4
330
20
100
AcDbEntity
  8
TEXT
100
AcDbText
 10
587.1948509522525
 20
256.3723320029449
 30
0.0
 40
12.5
  1
Benennung
 41
0.8
  7
GREEKS
100
AcDbText
  0
LINE
  5
1B5
330
20
100
AcDbEntity
  8
STEMPEL
100
AcDbLine
 10
830.0
 20
274.9999999999994
 30
0.0
 11
830.0
 21
100.0
 31
0.0
  0
LINE
  5
1B6
330
20
100
AcDbEntity
  8
MITTEL
100
AcDbLine
 10
1003.211258092675
 20
861.8653515270503
 30
0.0
 11
746.2612580926754
 21
861.8653515270503
 31
0.0
  0
DIMENSION
  5
1B8
330
20
100
AcDbEntity
  8
BEM
100
AcDbDimension
  2
*D7
 10
584.3112580926754
 20
1186.49053720588
 30
0.0
 11
746.2612580926753
 21
1202.74053720588
 31
0.0
 70
    32
  1
%%c324
 71
     5
 42
323.8999999999998
  3
Standard
100
AcDbAlignedDimension
 13
908.2112580926752
 23
1151.86535152705
 33
0.0
 14
584.3112580926754
 24
1151.86535152705
 34
0.0
 50
180.0
100
AcDbRotatedDimension
1001
ACAD
1000
DSTYLE
1002
{
1070
    40
1040
5.0
1070
    41
1040
3.5
1070
    42
1040
1.0
1070
    43
1040
7.0
1070
    44
1040
1.0
1070
    47
1040
6.0
1070
    48
1040
6.0
1070
    73
1070
     0
1070
    74
1070
     0
1070
    77
1070
     1
1070
    78
1070
     8
1070
    79
1070
     2
1070
   140
1040
3.5
1070
   141
1040
1.5
1070
   146
1040
0.5
1070
   147
1040
1.5
1070
   172
1070
     1
1070
   178
1070
     1
1070
   179
1070
     2
1070
   271
1070
     2
1070
   272
1070
     2
1070
   284
1070
     8
1070
   285
1070
     8
1070
   286
1070
     8
1070
   340
1005
2C
1002
}
  0
LINE
  5
1B9
330
20
100
AcDbEntity
  8
STEMPEL
100
AcDbLine
 10
908.2112580926752
 20
1151.86535152705
 30
0.0
 11
584.3112580926754
 21
1151.86535152705
 31
0.0
  0
LINE
  5
1BA
330
20
100
AcDbEntity
  8
STEMPEL
100
AcDbLine
 10
908.211258092675
 20
1151.86535152705
 30
0.0
 11
908.2112580926748
 21
946.3653515270506
 31
0.0
  0
LINE
  5
1BB
330
20
100
AcDbEntity
  8
STEMPEL
  6
Continuous
100
AcDbLine
 10
954.4281538747409
 20
952.3653515270504
 30
0.0
 11
938.1486525635208
 21
952.3653515270504
 31
0.0
  0
LINE
  5
1BC
330
20
100
AcDbEntity
  8
STEMPEL
  6
Continuous
100
AcDbLine
 10
954.4281538747409
 20
771.3653515270504
 30
0.0
 11
938.1486525635208
 21
771.3653515270504
 31
0.0
  0
ARC
  5
1BD
330
20
100
AcDbEntity
  8
STEMPEL
100
AcDbCircle
 10
1068.964115035741
 20
861.8653515270505
 30
0.0
 40
181.608730559293
100
AcDbArc
 50
152.2712668845675
 51
207.7287331154326
  0
LINE
  5
1BE
330
20
100
AcDbEntity
  8
HILF
100
AcDbLine
 10
919.0464888147753
 20
779.8265133375617
 30
0.0
 11
919.0464888147753
 21
943.4778832611069
 31
0.0
  0
INSERT
  5
1BF
330
20
100
AcDbEntity
  8
SCHRAFF
100
AcDbBlockReference
  2
*X2
 10
-241.3175984541481
 20
-417.1946594543612
 30
0.0
 41
-1.0
 50
270.0
1001
ACAD
1000
HATCH
1002
{
1070
    16
1000
ANSI37,I
1040
1.0
1040
0.0
1002
}
  0
ARC
  5
1C0
330
20
100
AcDbEntity
  8
SCHRAFF
100
AcDbCircle
 10
908.211258092675
 20
777.3653515270503
 30
0.0
 40
4.0
100
AcDbArc
 50
270.0
 51
0.0
  0
LINE
  5
1C1
330
20
100
AcDbEntity
  8
STEMPEL
  6
Continuous
100
AcDbLine
 10
913.7112580926741
 20
777.3653515270503
 30
0.0
 11
908.211258092675
 21
777.3653515270503
 31
0.0
  0
ARC
  5
1C2
330
20
100
AcDbEntity
  8
SCHRAFF
100
AcDbCircle
 10
896.2623667199
 20
805.6885133816924
 30
0.0
 40
5.0
100
AcDbArc
 50
251.7773054702256
 51
325.5223132730064
  0
ARC
  5
1C3
330
20
100
AcDbEntity
  8
SCHRAFF
100
AcDbCircle
 10
901.4859577058025
 20
791.6314720049406
 30
0.0
 40
5.0
100
AcDbArc
 50
256.5098083409576
 51
330.2548161437366
  0
ARC
  5
1C4
330
20
100
AcDbEntity
  8
SCHRAFF
100
AcDbCircle
 10
899.6159555356738
 20
796.268614647098
 30
0.0
 40
5.0
100
AcDbArc
 50
254.9323073840469
 51
328.6773151868278
  0
ARC
  5
1C5
330
20
100
AcDbEntity
  8
SCHRAFF
100
AcDbCircle
 10
897.8743184894236
 20
800.9554793132824
 30
0.0
 40
5.0
100
AcDbArc
 50
253.3548064271357
 51
327.0998142299171
  0
ARC
  5
1C6
330
20
100
AcDbEntity
  8
SCHRAFF
100
AcDbCircle
 10
905.6052913798625
 20
782.5203721702854
 30
0.0
 40
5.0
100
AcDbArc
 50
259.6648102547769
 51
333.4098180575574
  0
ARC
  5
1C7
330
20
100
AcDbEntity
  8
SCHRAFF
100
AcDbCircle
 10
903.4829075467886
 20
787.0475663195468
 30
0.0
 40
5.0
100
AcDbArc
 50
258.0873092978681
 51
331.8323171006479
  0
ARC
  5
1C8
330
20
100
AcDbEntity
  8
SCHRAFF
100
AcDbCircle
 10
892.2163446058176
 20
820.128597180205
 30
0.0
 40
5.0
100
AcDbArc
 50
247.0448025994955
 51
320.7898104022756
  0
ARC
  5
1C9
330
20
100
AcDbEntity
  8
SCHRAFF
100
AcDbCircle
 10
891.1343560144095
 20
825.0101236513064
 30
0.0
 40
5.0
100
AcDbArc
 50
245.467301642586
 51
319.2123094453661
  0
ARC
  5
1CA
330
20
100
AcDbEntity
  8
SCHRAFF
100
AcDbCircle
 10
890.1871615602001
 20
829.9195862151636
 30
0.0
 40
5.0
100
AcDbArc
 50
243.8898006856766
 51
317.634808488456
  0
ARC
  5
1CB
330
20
100
AcDbEntity
  8
SCHRAFF
100
AcDbCircle
 10
889.3754792122173
 20
834.8532635217953
 30
0.0
 40
5.0
100
AcDbArc
 50
242.3122997287668
 51
316.0573075315462
  0
ARC
  5
1CC
330
20
100
AcDbEntity
  8
SCHRAFF
100
AcDbCircle
 10
888.6999242219374
 20
839.807415866557
 30
0.0
 40
5.0
100
AcDbArc
 50
240.7347987718565
 51
314.4798065746362
  0
ARC
  5
1CD
330
20
100
AcDbEntity
  8
SCHRAFF
100
AcDbCircle
 10
888.1610086569274
 20
844.7782880248194
 30
0.0
 40
5.0
100
AcDbArc
 50
239.1572978149462
 51
312.9023056177268
  0
ARC
  5
1CE
330
20
100
AcDbEntity
  8
SCHRAFF
100
AcDbCircle
 10
887.7591410127001
 20
849.7621120984122
 30
0.0
 40
5.0
100
AcDbArc
 50
237.5797968580342
 51
311.3248046608144
  0
ARC
  5
1CF
330
20
100
AcDbEntity
  8
SCHRAFF
100
AcDbCircle
 10
887.4946259030766
 20
854.7551103716726
 30
0.0
 40
5.0
100
AcDbArc
 50
236.0022959011248
 51
309.7473037039052
  0
ARC
  5
1D0
330
20
100
AcDbEntity
  8
SCHRAFF
100
AcDbCircle
 10
887.3676638292897
 20
859.7534981749367
 30
0.0
 40
5.0
100
AcDbArc
 50
234.4247949442148
 51
308.1698027469963
  0
ARC
  5
1D1
330
20
100
AcDbEntity
  8
SCHRAFF
100
AcDbCircle
 10
894.7813220791104
 20
810.4641292343327
 30
0.0
 40
5.0
100
AcDbArc
 50
250.1998045133166
 51
323.9448123160963
  0
ARC
  5
1D2
330
20
100
AcDbEntity
  8
SCHRAFF
100
AcDbCircle
 10
893.4323071920619
 20
815.2787069764114
 30
0.0
 40
5.0
100
AcDbArc
 50
248.622303556407
 51
322.3673113591869
  0
ARC
  5
1D3
330
20
100
AcDbEntity
  8
STEMPEL
  6
Continuous
100
AcDbCircle
 10
938.2062580926749
 20
806.3653515270504
 30
0.0
 40
35.00004740563918
100
AcDbArc
 50
242.472816379448
 51
270.0943014490841
  0
ARC
  5
1D4
330
20
100
AcDbEntity
  8
STEMPEL
  6
Continuous
100
AcDbCircle
 10
913.7112580926741
 20
759.3653515270504
 30
0.0
 40
18.0
100
AcDbArc
 50
62.47281637944795
 51
90.0
  0
LINE
  5
1D5
330
20
100
AcDbEntity
  8
STEMPEL
  6
Continuous
100
AcDbLine
 10
913.7112580926741
 20
946.3653515270504
 30
0.0
 11
908.211258092675
 21
946.3653515270504
 31
0.0
  0
ARC
  5
1D6
330
20
100
AcDbEntity
  8
SCHRAFF
100
AcDbCircle
 10
908.211258092675
 20
946.3653515270504
 30
0.0
 40
4.0
100
AcDbArc
 50
0.0
 51
90.0
  0
ARC
  5
1D7
330
20
100
AcDbEntity
  8
SCHRAFF
100
AcDbCircle
 10
887.8125365081862
 20
874.7431080216035
 30
0.0
 40
5.0
100
AcDbArc
 50
229.692292073485
 51
303.4372998762648
  0
ARC
  5
1D8
330
20
100
AcDbEntity
  8
SCHRAFF
100
AcDbCircle
 10
888.2357056790581
 20
879.7251686246898
 30
0.0
 40
5.0
100
AcDbArc
 50
228.1147911165755
 51
301.8597989193559
  0
ARC
  5
1D9
330
20
100
AcDbEntity
  8
SCHRAFF
100
AcDbCircle
 10
888.7958661507145
 20
884.6936915687843
 30
0.0
 40
5.0
100
AcDbArc
 50
226.5372901596642
 51
300.2822979624446
  0
ARC
  5
1DA
330
20
100
AcDbEntity
  8
SCHRAFF
100
AcDbCircle
 10
889.4925933241013
 20
889.64491073641
 30
0.0
 40
5.0
100
AcDbArc
 50
224.9597892027543
 51
298.7047970055348
  0
ARC
  5
1DB
330
20
100
AcDbEntity
  8
SCHRAFF
100
AcDbCircle
 10
890.3253590832342
 20
894.5750731262727
 30
0.0
 40
5.0
100
AcDbArc
 50
223.3822882458453
 51
297.1272960486254
  0
ARC
  5
1DC
330
20
100
AcDbEntity
  8
SCHRAFF
100
AcDbCircle
 10
891.2935321955087
 20
899.4804416980182
 30
0.0
 40
5.0
100
AcDbArc
 50
221.804787288934
 51
295.5497950917145
  0
ARC
  5
1DD
330
20
100
AcDbEntity
  8
SCHRAFF
100
AcDbCircle
 10
892.3963787901707
 20
904.3572982048925
 30
0.0
 40
5.0
100
AcDbArc
 50
220.2272863320238
 51
293.9722941348031
  0
ARC
  5
1DE
330
20
100
AcDbEntity
  8
SCHRAFF
100
AcDbCircle
 10
893.6330629145874
 20
909.2019460121552
 30
0.0
 40
5.0
100
AcDbArc
 50
218.6497853751154
 51
292.3947931778954
  0
ARC
  5
1DF
330
20
100
AcDbEntity
  8
SCHRAFF
100
AcDbCircle
 10
887.3783510280063
 20
864.7534867533021
 30
0.0
 40
5.0
100
AcDbArc
 50
232.847293987305
 51
306.5923017900853
  0
ARC
  5
1E0
330
20
100
AcDbEntity
  8
SCHRAFF
100
AcDbCircle
 10
887.5266793983787
 20
869.7512861384858
 30
0.0
 40
5.0
100
AcDbArc
 50
231.2697930303945
 51
305.0148008331754
  0
ARC
  5
1E1
330
20
100
AcDbEntity
  8
SCHRAFF
100
AcDbCircle
 10
895.0026471678967
 20
914.0107128991115
 30
0.0
 40
5.0
100
AcDbArc
 50
217.0722844182038
 51
290.8172922209837
  0
ARC
  5
1E2
330
20
100
AcDbEntity
  8
SCHRAFF
100
AcDbCircle
 10
896.5040934115505
 20
918.7799538426387
 30
0.0
 40
5.0
100
AcDbArc
 50
215.4947834612934
 51
289.2397912640728
  0
ARC
  5
1E3
330
20
100
AcDbEntity
  8
SCHRAFF
100
AcDbCircle
 10
899.8979204244651
 20
928.1854303495315
 30
0.0
 40
5.0
100
AcDbArc
 50
212.3397815474745
 51
286.0847893502541
  0
ARC
  5
1E4
330
20
100
AcDbEntity
  8
SCHRAFF
100
AcDbCircle
 10
901.7877286885026
 20
932.8145366050817
 30
0.0
 40
5.0
100
AcDbArc
 50
210.7622805905626
 51
284.5072883933429
  0
ARC
  5
1E5
330
20
100
AcDbEntity
  8
SCHRAFF
100
AcDbCircle
 10
903.8042558823844
 20
937.3898637055562
 30
0.0
 40
5.0
100
AcDbArc
 50
209.1847796336526
 51
282.9297874364333
  0
ARC
  5
1E6
330
20
100
AcDbEntity
  8
SCHRAFF
100
AcDbCircle
 10
898.1362635562206
 20
923.5060537800976
 30
0.0
 40
5.0
100
AcDbArc
 50
213.9172825043838
 51
287.6622903071634
  0
ARC
  5
1E7
330
20
100
AcDbEntity
  8
SCHRAFF
100
AcDbCircle
 10
905.9459734877975
 20
941.9079435741135
 30
0.0
 40
5.0
100
AcDbArc
 50
207.6072786767446
 51
281.3522864795247
  0
ARC
  5
1E8
330
20
100
AcDbEntity
  8
SCHRAFF
100
AcDbCircle
 10
908.2112580926748
 20
946.3653515270506
 30
0.0
 40
5.0
100
AcDbArc
 50
206.0297777198253
 51
279.7747855226135
  0
ARC
  5
1E9
330
20
100
AcDbEntity
  8
STEMPEL
  6
Continuous
100
AcDbCircle
 10
938.2062580926749
 20
917.3653515270503
 30
0.0
 40
35.00004740563918
100
AcDbArc
 50
89.90569855091585
 51
117.527183620552
  0
ARC
  5
1EA
330
20
100
AcDbEntity
  8
STEMPEL
  6
Continuous
100
AcDbCircle
 10
913.7112580926741
 20
964.3653515270504
 30
0.0
 40
18.0
100
AcDbArc
 50
270.0
 51
297.527183620552
  0
LINE
  5
1ED
330
20
100
AcDbEntity
  8
STEMPEL
100
AcDbLine
 10
981.2112580926752
 20
828.8653515270503
 30
0.0
 11
981.2112580926752
 21
894.8653515270503
 31
0.0
  0
LINE
  5
1EF
330
20
100
AcDbEntity
  8
STEMPEL
100
AcDbLine
 10
960.7288961828798
 20
766.8653515270504
 30
0.0
 11
960.7288961828803
 21
956.8653515270504
 31
0.0
  0
LINE
  5
1F0
330
20
100
AcDbEntity
  8
STEMPEL
100
AcDbLine
 10
960.211258092675
 20
768.7972031796285
 30
0.0
 11
960.211258092675
 21
954.9334998744713
 31
0.0
  0
LINE
  5
1F1
330
20
100
AcDbEntity
  8
STEMPEL
100
AcDbLine
 10
975.2112580926752
 20
775.349850633149
 30
0.0
 11
975.2112580926752
 21
948.3808524209518
 31
0.0
  0
ARC
  5
1F3
330
20
100
AcDbEntity
  8
STEMPEL
100
AcDbCircle
 10
969.2112580926753
 20
775.349850633149
 30
0.0
 40
6.0
100
AcDbArc
 50
285.0
 51
0.0
  0
ARC
  5
1F4
330
20
100
AcDbEntity
  8
STEMPEL
  6
Continuous
100
AcDbCircle
 10
954.4281538747409
 20
806.3653515270504
 30
0.0
 40
35.0
100
AcDbArc
 50
270.0
 51
279.5106858853744
  0
LINE
  5
1F5
330
20
100
AcDbEntity
  8
STEMPEL
100
AcDbLine
 10
960.7288961828798
 20
766.8653515270504
 30
0.0
 11
970.7641723632898
 21
769.5542956754144
 31
0.0
  0
LINE
  5
1F6
330
20
100
AcDbEntity
  8
STEMPEL
100
AcDbLine
 10
960.7288961828798
 20
766.8653515270504
 30
0.0
 11
960.211258092675
 21
768.7972031796285
 31
0.0
  0
ARC
  5
1F7
330
20
100
AcDbEntity
  8
STEMPEL
100
AcDbCircle
 10
975.2112580926752
 20
828.8653515270503
 30
0.0
 40
6.0
100
AcDbArc
 50
329.9999999999998
 51
0.0
  0
ARC
  5
1F8
330
20
100
AcDbEntity
  8
STEMPEL
100
AcDbCircle
 10
979.2112580926753
 20
815.7935547573258
 30
0.0
 40
4.0
100
AcDbArc
 50
149.9999999999999
 51
180.0
  0
LINE
  5
1F9
330
20
100
AcDbEntity
  8
STEMPEL
100
AcDbLine
 10
975.7471564775372
 20
817.7935547573257
 30
0.0
 11
980.4074105153816
 21
825.8653515270504
 31
0.0
  0
ARC
  5
1FF
330
20
100
AcDbEntity
  8
STEMPEL
100
AcDbCircle
 10
979.2112580926753
 20
907.9371482967751
 30
0.0
 40
4.0
100
AcDbArc
 50
179.9999999999999
 51
210.0
  0
ARC
  5
200
330
20
100
AcDbEntity
  8
STEMPEL
100
AcDbCircle
 10
975.2112580926752
 20
894.8653515270503
 30
0.0
 40
6.0
100
AcDbArc
 50
0.0
 51
30.00000000000011
  0
LINE
  5
201
330
20
100
AcDbEntity
  8
STEMPEL
100
AcDbLine
 10
975.7471564775372
 20
905.9371482967749
 30
0.0
 11
980.4074105153816
 21
897.8653515270504
 31
0.0
  0
ARC
  5
202
330
20
100
AcDbEntity
  8
STEMPEL
100
AcDbCircle
 10
969.2112580926753
 20
948.3808524209518
 30
0.0
 40
6.0
100
AcDbArc
 50
359.9999999999999
 51
74.9999999999998
  0
LINE
  5
203
330
20
100
AcDbEntity
  8
STEMPEL
100
AcDbLine
 10
960.7288961828803
 20
956.8653515270504
 30
0.0
 11
970.7641723632898
 21
954.1764073786859
 31
0.0
  0
LINE
  5
204
330
20
100
AcDbEntity
  8
STEMPEL
100
AcDbLine
 10
960.7288961828803
 20
956.8653515270504
 30
0.0
 11
960.211258092675
 21
954.9334998744713
 31
0.0
  0
ARC
  5
205
330
20
100
AcDbEntity
  8
STEMPEL
  6
Continuous
100
AcDbCircle
 10
954.4281538747409
 20
917.3653515270503
 30
0.0
 40
35.0
100
AcDbArc
 50
80.48931411462557
 51
90.0
  0
LINE
  5
217
330
20
100
AcDbEntity
  8
STEMPEL
100
AcDbLine
 10
99.99999999999971
 20
1460.0
 30
0.0
 11
1025.0
 21
1460.0
 31
0.0
  0
TEXT
  5
221
330
20
100
AcDbEntity
  8
TEXT
 62
     1
100
AcDbText
 10
734.1206661476751
 20
959.3311945131059
 30
0.0
 40
17.5
  1
DN300
 50
90.0
 41
0.8
  7
GREEKS
100
AcDbText
  0
TEXT
  5
224
330
20
100
AcDbEntity
  8
TEXT
100
AcDbText
 10
481.7206788119809
 20
221.0689997008983
 30
0.0
 40
10.0
  1
DIN EN1123-2
 41
0.8
  7
GREEKS
 72
     1
 11
524.1968692881714
 21
221.0689997008983
 31
0.0
100
AcDbText
  0
TEXT
  5
227
330
20
100
AcDbEntity
  8
BEM
100
AcDbText
 10
1043.255730964291
 20
25.41975269997152
 30
0.0
 40
10.0
  1
Diese Zeichnung ist urheberrechtlich geschützt und bleibt unser Eigentum. Sie darf weder ganz noch teilweise verfielfältigt und nicht an Dritte weitergegeben werden.
 50
90.0
 41
0.8
  7
GREEKS
100
AcDbText
  0
CIRCLE
  5
2A0
330
20
100
AcDbEntity
  8
STEMPEL
100
AcDbCircle
 10
294.328031972936
 20
861.8653515270503
 30
0.0
 40
4.0
  0
CIRCLE
  5
2A1
330
20
100
AcDbEntity
  8
STEMPEL
100
AcDbCircle
 10
294.328031972936
 20
861.8653515270503
 30
0.0
 40
5.0
  0
LWPOLYLINE
  5
2A2
330
20
100
AcDbEntity
  8
STEMPEL
100
AcDbPolyline
 90
        6
 70
     1
 43
0.0
 10
286.8280319729359
 20
857.5352245081283
 10
294.3280319729359
 20
853.205097489206
 10
301.828031972936
 20
857.5352245081283
 10
301.828031972936
 20
866.1954785459725
 10
294.3280319729359
 20
870.5256055648947
 10
286.8280319729359
 20
866.1954785459725
  0
CIRCLE
  5
2A3
330
20
100
AcDbEntity
  8
STEMPEL
100
AcDbCircle
 10
294.328031972936
 20
861.8653515270505
 30
0.0
 40
10.9
  0
CIRCLE
  5
2A4
330
20
100
AcDbEntity
  8
HILF
100
AcDbCircle
 10
294.328031972936
 20
861.8653515270505
 30
0.0
 40
10.40651510749425
  0
CIRCLE
  5
2A5
330
20
100
AcDbEntity
  8
STEMPEL
100
AcDbCircle
 10
294.328031972936
 20
861.8653515270505
 30
0.0
 40
7.499999999999968
  0
POINT
  5
2A6
330
20
100
AcDbEntity
  8
0
100
AcDbPoint
 10
294.3280319729359
 20
861.8653515270503
 30
0.0
  0
LINE
  5
2C7
330
20
100
AcDbEntity
  8
STEMPEL
100
AcDbLine
 10
998.2112580926751
 20
865.8653515270504
 30
0.0
 11
997.2112580926753
 21
866.8653515270504
 31
0.0
  0
LINE
  5
2C8
330
20
100
AcDbEntity
  8
STEMPEL
100
AcDbLine
 10
997.2112580926754
 20
856.8653515270503
 30
0.0
 11
998.2112580926754
 21
857.8653515270502
 31
0.0
  0
LINE
  5
2C9
330
20
100
AcDbEntity
  8
STEMPEL
100
AcDbLine
 10
997.2112580926753
 20
866.8653515270502
 30
0.0
 11
997.2112580926754
 21
856.8653515270503
 31
0.0
  0
LINE
  5
2CA
330
20
100
AcDbEntity
  8
STEMPEL
100
AcDbLine
 10
998.2112580926751
 20
865.8653515270502
 30
0.0
 11
998.2112580926754
 21
857.8653515270504
 31
0.0
  0
LINE
  5
2CB
330
20
100
AcDbEntity
  8
HILF
100
AcDbLine
 10
998.2112580926751
 20
857.8653515270502
 30
0.0
 11
991.2112580926752
 21
857.8653515270504
 31
0.0
  0
LINE
  5
2CC
330
20
100
AcDbEntity
  8
HILF
100
AcDbLine
 10
998.2112580926751
 20
865.8653515270504
 30
0.0
 11
991.2112580926752
 21
865.8653515270504
 31
0.0
  0
LINE
  5
2CD
330
20
100
AcDbEntity
  8
STEMPEL
100
AcDbLine
 10
997.2112580926751
 20
856.8653515270503
 30
0.0
 11
991.2112580926752
 21
856.8653515270504
 31
0.0
  0
LINE
  5
2CE
330
20
100
AcDbEntity
  8
STEMPEL
100
AcDbLine
 10
997.2112580926751
 20
866.8653515270504
 30
0.0
 11
991.2112580926752
 21
866.8653515270504
 31
0.0
  0
ARC
  5
2CF
330
20
100
AcDbEntity
  8
STEMPEL
100
AcDbCircle
 10
960.9003689602204
 20
861.8653515270505
 30
0.0
 40
30.31088913245485
100
AcDbArc
 50
351.7867892982634
 51
8.213210701736656
  0
ARC
  5
2D0
330
20
100
AcDbEntity
  8
STEMPEL
100
AcDbCircle
 10
983.5169523848907
 20
868.3605420554338
 30
0.0
 40
7.694305707784447
100
AcDbArc
 50
343.6571066940134
 51
16.34289330598655
  0
ARC
  5
2D1
330
20
100
AcDbEntity
  8
STEMPEL
100
AcDbCircle
 10
983.5169523848907
 20
855.3701609986672
 30
0.0
 40
7.694305707784447
100
AcDbArc
 50
343.6571066940134
 51
16.34289330598655
  0
ARC
  5
2D2
330
20
100
AcDbEntity
  8
HILF
100
AcDbCircle
 10
961.312797045014
 20
861.8653515270505
 30
0.0
 40
22.41111549782308
100
AcDbArc
 50
348.8596278389071
 51
11.14037216109288
  0
ARC
  5
2D3
330
20
100
AcDbEntity
  8
HILF
100
AcDbCircle
 10
977.9627719431456
 20
855.3701609986672
 30
0.0
 40
5.761140599691502
100
AcDbArc
 50
337.9259452632605
 51
22.07405473673945
  0
ARC
  5
2D4
330
20
100
AcDbEntity
  8
HILF
100
AcDbCircle
 10
977.9627719431456
 20
868.3605420554338
 30
0.0
 40
5.761140599691502
100
AcDbArc
 50
337.9259452632605
 51
22.07405473673945
  0
POINT
  5
2D5
330
20
100
AcDbEntity
  8
0
100
AcDbPoint
 10
981.2112580926752
 20
861.8653515270505
 30
0.0
210
1.0
220
-0.0000000000000002
230
0.0
  0
LINE
  5
2D6
330
20
100
AcDbEntity
  8
STEMPEL
100
AcDbLine
 10
991.2112580926752
 20
869.3653515270504
 30
0.0
 11
991.2112580926752
 21
854.3653515270504
 31
0.0
  0
LINE
  5
2D7
330
20
100
AcDbEntity
  8
STEMPEL
100
AcDbLine
 10
983.301614608875
 20
853.205097489206
 30
0.0
 11
990.9003689602199
 21
853.205097489206
 31
0.0
  0
LINE
  5
2D8
330
20
100
AcDbEntity
  8
STEMPEL
100
AcDbLine
 10
983.301614608875
 20
857.5352245081283
 30
0.0
 11
990.9003689602199
 21
857.5352245081283
 31
0.0
  0
LINE
  5
2D9
330
20
100
AcDbEntity
  8
STEMPEL
100
AcDbLine
 10
983.301614608875
 20
866.1954785459727
 30
0.0
 11
990.9003689602199
 21
866.1954785459727
 31
0.0
  0
LINE
  5
2DA
330
20
100
AcDbEntity
  8
STEMPEL
100
AcDbLine
 10
982.6660275582646
 20
851.4588364195562
 30
0.0
 11
982.6660275582646
 21
872.2718666345446
 31
0.0
  0
LINE
  5
2DB
330
20
100
AcDbEntity
  8
STEMPEL
100
AcDbLine
 10
981.2112580926752
 20
851.7153515270505
 30
0.0
 11
981.2112580926752
 21
872.0153515270505
 31
0.0
  0
LINE
  5
2DC
330
20
100
AcDbEntity
  8
STEMPEL
100
AcDbLine
 10
983.301614608875
 20
870.5256055648948
 30
0.0
 11
990.9003689602199
 21
870.5256055648948
 31
0.0
  0
LINE
  5
2DD
330
20
100
AcDbEntity
  8
STEMPEL
100
AcDbLine
 10
991.2112580926752
 20
869.3653515270504
 30
0.0
 11
990.9003689602199
 21
870.5256055648948
 31
0.0
  0
LINE
  5
2DE
330
20
100
AcDbEntity
  8
STEMPEL
100
AcDbLine
 10
990.9003689602199
 20
853.205097489206
 30
0.0
 11
991.2112580926752
 21
854.3653515270504
 31
0.0
  0
LINE
  5
2DF
330
20
100
AcDbEntity
  8
STEMPEL
100
AcDbLine
 10
982.6660275582646
 20
851.4588364195562
 30
0.0
 11
983.301614608875
 21
853.205097489206
 31
0.0
  0
LINE
  5
2E0
330
20
100
AcDbEntity
  8
STEMPEL
100
AcDbLine
 10
983.301614608875
 20
870.5256055648948
 30
0.0
 11
982.6660275582646
 21
872.2718666345446
 31
0.0
  0
ARC
  5
2E1
330
20
100
AcDbEntity
  8
STEMPEL
100
AcDbCircle
 10
981.9612580926753
 20
872.0153515270505
 30
0.0
 40
0.7500000000000013
100
AcDbArc
 50
19.99999999999759
 51
179.9999991462263
  0
ARC
  5
2E2
330
20
100
AcDbEntity
  8
STEMPEL
100
AcDbCircle
 10
981.9612580926753
 20
851.7153515270505
 30
0.0
 40
0.750000000000001
100
AcDbArc
 50
179.9999991462263
 51
340.0000000000024
  0
ENDSEC
  0
SECTION
  2
OBJECTS
  0
DICTIONARY
  5
C
330
0
100
AcDbDictionary
281
     1
  3
ACAD_COLOR
350
1B
  3
ACAD_GROUP
350
D
  3
ACAD_LAYOUT
350
19
  3
ACAD_MATERIAL
350
1A
  3
ACAD_MLINESTYLE
350
16
  3
ACAD_PLOTSETTINGS
350
18
  3
ACAD_PLOTSTYLENAME
350
E
  3
AcDbVariableDictionary
350
23C
  0
DICTIONARY
  5
1B
102
{ACAD_REACTORS
330
C
102
}
330
C
100
AcDbDictionary
281
     1
  0
DICTIONARY
  5
D
102
{ACAD_REACTORS
330
C
102
}
330
C
100
AcDbDictionary
281
     1
  0
DICTIONARY
  5
19
102
{ACAD_REACTORS
330
C
102
}
330
C
100
AcDbDictionary
281
     1
  3
Layout1
350
1F
  3
Model
350
23
  0
DICTIONARY
  5
1A
102
{ACAD_REACTORS
330
C
102
}
330
C
100
AcDbDictionary
281
     1
  0
DICTIONARY
  5
16
102
{ACAD_REACTORS
330
C
102
}
330
C
100
AcDbDictionary
281
     1
  3
Standard
350
17
  0
DICTIONARY
  5
18
102
{ACAD_REACTORS
330
C
102
}
330
C
100
AcDbDictionary
281
     1
  0
ACDBDICTIONARYWDFLT
  5
E
102
{ACAD_REACTORS
330
C
102
}
330
C
100
AcDbDictionary
281
     1
  3
Normal
350
F
100
AcDbDictionaryWithDefault
340
F
  0
DICTIONARY
  5
23C
102
{ACAD_REACTORS
330
C
102
}
330
C
100
AcDbDictionary
281
     1
  3
DIMASSOC
350
23E
  3
HIDETEXT
350
23D
  3
PROJECTNAME
350
23F
  0
LAYOUT
  5
1F
102
{ACAD_REACTORS
330
19
102
}
330
19
100
AcDbPlotSettings
  1

  2
RICOH Aficio 2027 PCL 6
  4

  6

 40
0.0
 41
0.0
 42
0.0
 43
0.0
 44
0.0
 45
0.0
 46
0.0
 47
0.0
 48
0.0
 49
0.0
140
0.0
141
0.0
142
1.0
143
1.0
 70
   688
 72
     0
 73
     0
 74
     5
  7
monochrome1.ctb
 75
    16
147
1.0
 76
     0
 77
     2
 78
   300
148
0.0
149
0.0
100
AcDbLayout
  1
Layout1
 70
     0
 71
     1
 10
0.0
 20
0.0
 11
12.0
 21
9.0
 12
563.6906048606705
 22
50.00000000000001
 32
-2.58105543498411
 14
1.000000000000000E+20
 24
1.000000000000000E+20
 34
1.000000000000000E+20
 15
-1.000000000000000E+20
 25
-1.000000000000000E+20
 35
-1.000000000000000E+20
146
0.0
 13
0.0
 23
0.0
 33
0.0
 16
1.0
 26
0.0
 36
0.0
 17
0.0
 27
1.0
 37
0.0
 76
     0
330
1C
  0
LAYOUT
  5
23
102
{ACAD_REACTORS
330
19
102
}
330
19
100
AcDbPlotSettings
  1

  2
RICOH Aficio 2027 PCL 6
  4
A4
  6

 40
5.027083396911621
 41
5.027085304260253
 42
5.027084350585937
 43
5.027069091796875
 44
209.9733276367187
 45
296.9259948730469
 46
0.0
 47
0.0
 48
0.0
 49
0.0
140
0.0
141
0.0
142
1.0
143
1.0
 70
 11952
 72
     0
 73
     1
 74
     0
  7
monochrome1.ctb
 75
     0
147
1.0
 76
     0
 77
     2
 78
   300
148
5752.699293353071
149
228.1992676275874
100
AcDbLayout
  1
Model
 70
     1
 71
     0
 10
0.0
 20
0.0
 11
12.0
 21
9.0
 12
0.0
 22
0.0
 32
0.0
 14
0.0
 24
0.0
 34
0.0
 15
0.0
 25
0.0
 35
0.0
146
0.0
 13
0.0
 23
0.0
 33
0.0
 16
1.0
 26
0.0
 36
0.0
 17
0.0
 27
1.0
 37
0.0
 76
     0
330
20
  0
MLINESTYLE
  5
17
102
{ACAD_REACTORS
330
16
102
}
330
16
100
AcDbMlineStyle
  2
STANDARD
 70
     0
  3

 62
   256
 51
90.0
 52
90.0
 71
     2
 49
0.5
 62
   256
  6
BYLAYER
 49
-0.5
 62
   256
  6
BYLAYER
  0
ACDBPLACEHOLDER
  5
F
102
{ACAD_REACTORS
330
E
102
}
330
E
  0
DICTIONARYVAR
  5
23E
102
{ACAD_REACTORS
330
23C
102
}
330
23C
100
DictionaryVariables
280
     0
  1
2
  0
DICTIONARYVAR
  5
23D
102
{ACAD_REACTORS
330
23C
102
}
330
23C
100
DictionaryVariables
280
     0
  1
1
  0
DICTIONARYVAR
  5
23F
102
{ACAD_REACTORS
330
23C
102
}
330
23C
100
DictionaryVariables
280
     0
  1

  0
ENDSEC
  0
EOF
