  0
SECTION
  2
HEADER
  9
$ACADVER
  1
AC1018
  9
$ACADMAINTVER
 70
     2
  9
$DWGCODEPAGE
  3
ANSI_1252
  9
$INSBASE
 10
0.0
 20
0.0
 30
0.0
  9
$EXTMIN
 10
-0.0128072607766967
 20
-0.0181131259560061
 30
-0.0000000000000129
  9
$EXTMAX
 10
210.0128231525799
 20
297.0181356015053
 30
0.0000000000000023
  9
$LIMMIN
 10
0.0
 20
0.0
  9
$LIMMAX
 10
210.0
 20
297.0
  9
$ORTHOMODE
 70
     1
  9
$REGENMODE
 70
     1
  9
$FILLMODE
 70
     1
  9
$QTEXTMODE
 70
     0
  9
$MIRRTEXT
 70
     1
  9
$LTSCALE
 40
10.0
  9
$ATTMODE
 70
     1
  9
$TEXTSIZE
 40
3.5
  9
$TRACEWID
 40
0.5
  9
$TEXTSTYLE
  7
STANDARD
  9
$CLAYER
  8
SCHRAFF
  9
$CELTYPE
  6
ByLayer
  9
$CECOLOR
 62
   256
  9
$CELTSCALE
 40
1.0
  9
$DISPSILH
 70
     0
  9
$DIMSCALE
 40
1.0
  9
$DIMASZ
 40
3.5
  9
$DIMEXO
 40
1.0
  9
$DIMDLI
 40
7.0
  9
$DIMRND
 40
0.0
  9
$DIMDLE
 40
0.0
  9
$DIMEXE
 40
1.0
  9
$DIMTP
 40
0.0
  9
$DIMTM
 40
0.0
  9
$DIMTXT
 40
3.5
  9
$DIMCEN
 40
1.5
  9
$DIMTSZ
 40
0.0
  9
$DIMTOL
 70
     0
  9
$DIMLIM
 70
     0
  9
$DIMTIH
 70
     0
  9
$DIMTOH
 70
     0
  9
$DIMSE1
 70
     0
  9
$DIMSE2
 70
     0
  9
$DIMTAD
 70
     1
  9
$DIMZIN
 70
     8
  9
$DIMBLK
  1

  9
$DIMASO
 70
     1
  9
$DIMSHO
 70
     0
  9
$DIMPOST
  1

  9
$DIMAPOST
  1

  9
$DIMALT
 70
     0
  9
$DIMALTD
 70
     2
  9
$DIMALTF
 40
25.4
  9
$DIMLFAC
 40
1.0
  9
$DIMTOFL
 70
     1
  9
$DIMTVP
 40
0.0
  9
$DIMTIX
 70
     1
  9
$DIMSOXD
 70
     0
  9
$DIMSAH
 70
     0
  9
$DIMBLK1
  1

  9
$DIMBLK2
  1

  9
$DIMSTYLE
  2
Standard
  9
$DIMCLRD
 70
     0
  9
$DIMCLRE
 70
     0
  9
$DIMCLRT
 70
     1
  9
$DIMTFAC
 40
0.5
  9
$DIMGAP
 40
1.5
  9
$DIMJUST
 70
     0
  9
$DIMSD1
 70
     0
  9
$DIMSD2
 70
     0
  9
$DIMTOLJ
 70
     1
  9
$DIMTZIN
 70
     8
  9
$DIMALTZ
 70
     8
  9
$DIMALTTZ
 70
     8
  9
$DIMUPT
 70
     0
  9
$DIMDEC
 70
     2
  9
$DIMTDEC
 70
     2
  9
$DIMALTU
 70
     2
  9
$DIMALTTD
 70
     2
  9
$DIMTXSTY
  7
STANDARD
  9
$DIMAUNIT
 70
     0
  9
$DIMADEC
 70
     2
  9
$DIMALTRND
 40
0.0
  9
$DIMAZIN
 70
     2
  9
$DIMDSEP
 70
    46
  9
$DIMATFIT
 70
     3
  9
$DIMFRAC
 70
     0
  9
$DIMLDRBLK
  1

  9
$DIMLUNIT
 70
     2
  9
$DIMLWD
 70
    -2
  9
$DIMLWE
 70
    -2
  9
$DIMTMOVE
 70
     0
  9
$LUNITS
 70
     2
  9
$LUPREC
 70
     2
  9
$SKETCHINC
 40
1.0
  9
$FILLETRAD
 40
36.5
  9
$AUNITS
 70
     0
  9
$AUPREC
 70
     0
  9
$MENU
  1
ACAD
  9
$ELEVATION
 40
0.0
  9
$PELEVATION
 40
0.0
  9
$THICKNESS
 40
0.0
  9
$LIMCHECK
 70
     0
  9
$CHAMFERA
 40
0.0
  9
$CHAMFERB
 40
0.0
  9
$CHAMFERC
 40
0.0
  9
$CHAMFERD
 40
0.0
  9
$SKPOLY
 70
     0
  9
$TDCREATE
 40
2455397.864709028
  9
$TDUCREATE
 40
2455397.781375695
  9
$TDUPDATE
 40
2455652.617191458
  9
$TDUUPDATE
 40
2455652.533858125
  9
$TDINDWG
 40
0.0918092940
  9
$TDUSRTIMER
 40
0.0918092940
  9
$USRTIMER
 70
     1
  9
$ANGBASE
 50
0.0
  9
$ANGDIR
 70
     0
  9
$PDMODE
 70
     0
  9
$PDSIZE
 40
0.0
  9
$PLINEWID
 40
0.0
  9
$SPLFRAME
 70
     0
  9
$SPLINETYPE
 70
     6
  9
$SPLINESEGS
 70
     8
  9
$HANDSEED
  5
503
  9
$SURFTAB1
 70
     6
  9
$SURFTAB2
 70
     6
  9
$SURFTYPE
 70
     6
  9
$SURFU
 70
     6
  9
$SURFV
 70
     6
  9
$UCSBASE
  2

  9
$UCSNAME
  2

  9
$UCSORG
 10
0.0
 20
0.0
 30
0.0
  9
$UCSXDIR
 10
1.0
 20
0.0
 30
0.0
  9
$UCSYDIR
 10
0.0
 20
1.0
 30
0.0
  9
$UCSORTHOREF
  2

  9
$UCSORTHOVIEW
 70
     0
  9
$UCSORGTOP
 10
0.0
 20
0.0
 30
0.0
  9
$UCSORGBOTTOM
 10
0.0
 20
0.0
 30
0.0
  9
$UCSORGLEFT
 10
0.0
 20
0.0
 30
0.0
  9
$UCSORGRIGHT
 10
0.0
 20
0.0
 30
0.0
  9
$UCSORGFRONT
 10
0.0
 20
0.0
 30
0.0
  9
$UCSORGBACK
 10
0.0
 20
0.0
 30
0.0
  9
$PUCSBASE
  2

  9
$PUCSNAME
  2

  9
$PUCSORG
 10
0.0
 20
0.0
 30
0.0
  9
$PUCSXDIR
 10
1.0
 20
0.0
 30
0.0
  9
$PUCSYDIR
 10
0.0
 20
1.0
 30
0.0
  9
$PUCSORTHOREF
  2

  9
$PUCSORTHOVIEW
 70
     0
  9
$PUCSORGTOP
 10
0.0
 20
0.0
 30
0.0
  9
$PUCSORGBOTTOM
 10
0.0
 20
0.0
 30
0.0
  9
$PUCSORGLEFT
 10
0.0
 20
0.0
 30
0.0
  9
$PUCSORGRIGHT
 10
0.0
 20
0.0
 30
0.0
  9
$PUCSORGFRONT
 10
0.0
 20
0.0
 30
0.0
  9
$PUCSORGBACK
 10
0.0
 20
0.0
 30
0.0
  9
$USERI1
 70
     0
  9
$USERI2
 70
     0
  9
$USERI3
 70
     0
  9
$USERI4
 70
     0
  9
$USERI5
 70
     0
  9
$USERR1
 40
0.0
  9
$USERR2
 40
0.0
  9
$USERR3
 40
0.0
  9
$USERR4
 40
0.0
  9
$USERR5
 40
0.0
  9
$WORLDVIEW
 70
     1
  9
$SHADEDGE
 70
     3
  9
$SHADEDIF
 70
    70
  9
$TILEMODE
 70
     1
  9
$MAXACTVP
 70
    16
  9
$PINSBASE
 10
0.0
 20
0.0
 30
0.0
  9
$PLIMCHECK
 70
     0
  9
$PEXTMIN
 10
1.000000000000000E+20
 20
1.000000000000000E+20
 30
1.000000000000000E+20
  9
$PEXTMAX
 10
-1.000000000000000E+20
 20
-1.000000000000000E+20
 30
-1.000000000000000E+20
  9
$PLIMMIN
 10
0.0
 20
0.0
  9
$PLIMMAX
 10
12.0
 20
9.0
  9
$UNITMODE
 70
     0
  9
$VISRETAIN
 70
     0
  9
$PLINEGEN
 70
     0
  9
$PSLTSCALE
 70
     0
  9
$TREEDEPTH
 70
  3020
  9
$CMLSTYLE
  2
Standard
  9
$CMLJUST
 70
     0
  9
$CMLSCALE
 40
1.0
  9
$PROXYGRAPHICS
 70
     1
  9
$MEASUREMENT
 70
     0
  9
$CELWEIGHT
370
    -1
  9
$ENDCAPS
280
     0
  9
$JOINSTYLE
280
     0
  9
$LWDISPLAY
290
     0
  9
$INSUNITS
 70
     0
  9
$HYPERLINKBASE
  1

  9
$STYLESHEET
  1
monochrome 1.ctb
  9
$XEDIT
290
     1
  9
$CEPSNTYPE
380
     0
  9
$PSTYLEMODE
290
     1
  9
$FINGERPRINTGUID
  2
{D68B0D02-A558-11D7-B632-000102183313}
  9
$VERSIONGUID
  2
{9ED52994-5618-406A-8273-62BC550B0DA6}
  9
$EXTNAMES
290
     1
  9
$PSVPSCALE
 40
0.0
  9
$OLESTARTUP
290
     0
  9
$SORTENTS
280
   127
  9
$INDEXCTL
280
     0
  9
$HIDETEXT
280
     0
  9
$XCLIPFRAME
290
     0
  9
$HALOGAP
280
     0
  9
$OBSCOLOR
 70
   257
  9
$OBSLTYPE
280
     0
  9
$INTERSECTIONDISPLAY
280
     0
  9
$INTERSECTIONCOLOR
 70
   257
  9
$DIMASSOC
280
     1
  9
$PROJECTNAME
  1

  0
ENDSEC
  0
SECTION
  2
CLASSES
  0
CLASS
  1
ACDBDICTIONARYWDFLT
  2
AcDbDictionaryWithDefault
  3
ObjectDBX Classes
 90
        0
 91
        1
280
     0
281
     0
  0
CLASS
  1
DICTIONARYVAR
  2
AcDbDictionaryVar
  3
ObjectDBX Classes
 90
        0
 91
        2
280
     0
281
     0
  0
ENDSEC
  0
SECTION
  2
TABLES
  0
TABLE
  2
VPORT
  5
8
330
0
100
AcDbSymbolTable
 70
     3
  0
VPORT
  5
502
330
8
100
AcDbSymbolTableRecord
100
AcDbViewportTableRecord
  2
*Active
 70
     0
 10
0.0
 20
0.0
 11
1.0
 21
1.0
 12
105.0
 22
148.5
 13
0.0
 23
0.0
 14
1.0
 24
1.0
 15
10.0
 25
10.0
 16
0.0
 26
0.0
 36
1.0
 17
0.0
 27
0.0
 37
0.0
 40
297.0
 41
1.334231805929919
 42
50.0
 43
0.0
 44
0.0
 50
0.0
 51
0.0
 71
     0
 72
  1500
 73
     1
 74
     0
 75
     0
 76
     0
 77
     0
 78
     0
281
     0
 65
     1
110
0.0
120
0.0
130
0.0
111
1.0
121
0.0
131
0.0
112
0.0
122
1.0
132
0.0
 79
     0
146
0.0
  0
ENDTAB
  0
TABLE
  2
LTYPE
  5
5
330
0
100
AcDbSymbolTable
 70
     2
  0
LTYPE
  5
13
330
5
100
AcDbSymbolTableRecord
100
AcDbLinetypeTableRecord
  2
ByBlock
 70
     0
  3

 72
    65
 73
     0
 40
0.0
  0
LTYPE
  5
14
330
5
100
AcDbSymbolTableRecord
100
AcDbLinetypeTableRecord
  2
ByLayer
 70
     0
  3

 72
    65
 73
     0
 40
0.0
  0
LTYPE
  5
15
330
5
100
AcDbSymbolTableRecord
100
AcDbLinetypeTableRecord
  2
Continuous
 70
     0
  3
Solid line
 72
    65
 73
     0
 40
0.0
  0
LTYPE
  5
25
330
5
100
AcDbSymbolTableRecord
100
AcDbLinetypeTableRecord
  2
STRICHPUNKT
 70
     0
  3
__ . __ . __ . __ . __ . __ . __ . __ . __ . __
 72
    65
 73
     4
 40
1.0
 49
0.5
 74
     0
 49
-0.25
 74
     0
 49
0.0
 74
     0
 49
-0.25
 74
     0
  0
ENDTAB
  0
TABLE
  2
LAYER
  5
2
330
0
100
AcDbSymbolTable
 70
     9
  0
LAYER
  5
10
330
2
100
AcDbSymbolTableRecord
100
AcDbLayerTableRecord
  2
0
 70
     0
 62
     7
  6
Continuous
370
    -3
390
F
  0
LAYER
  5
2A
330
2
100
AcDbSymbolTableRecord
100
AcDbLayerTableRecord
  2
VOLL
 70
     0
 62
     1
  6
Continuous
370
    -3
390
F
  0
LAYER
  5
2B
330
2
100
AcDbSymbolTableRecord
100
AcDbLayerTableRecord
  2
HILF
 70
     0
 62
     2
  6
Continuous
370
    -3
390
F
  0
LAYER
  5
2C
330
2
100
AcDbSymbolTableRecord
100
AcDbLayerTableRecord
  2
MITTEL
 70
     0
 62
     2
  6
STRICHPUNKT
370
    -3
390
F
  0
LAYER
  5
2F
330
2
100
AcDbSymbolTableRecord
100
AcDbLayerTableRecord
  2
BEM
 70
     0
 62
     7
  6
Continuous
370
    -3
390
F
  0
LAYER
  5
30
330
2
100
AcDbSymbolTableRecord
100
AcDbLayerTableRecord
  2
STEMPEL
 70
     0
 62
     3
  6
Continuous
370
    -3
390
F
  0
LAYER
  5
31
330
2
100
AcDbSymbolTableRecord
100
AcDbLayerTableRecord
  2
TEXT
 70
     0
 62
     7
  6
Continuous
370
    -3
390
F
  0
LAYER
  5
221
330
2
100
AcDbSymbolTableRecord
100
AcDbLayerTableRecord
  2
Defpoints
 70
     0
 62
     7
  6
Continuous
290
     0
370
    -3
390
F
  0
LAYER
  5
2AD
330
2
100
AcDbSymbolTableRecord
100
AcDbLayerTableRecord
  2
SCHRAFF
 70
     0
 62
     7
  6
Continuous
370
    -3
390
F
  0
ENDTAB
  0
TABLE
  2
STYLE
  5
3
330
0
100
AcDbSymbolTable
 70
     2
  0
STYLE
  5
11
330
3
100
AcDbSymbolTableRecord
100
AcDbTextStyleTableRecord
  2
STANDARD
 70
     0
 40
0.0
 41
0.8
 50
0.0
 71
     0
 42
3.5
  3
simplex.shx
  4

  0
STYLE
  5
24
330
3
100
AcDbSymbolTableRecord
100
AcDbTextStyleTableRecord
  2
GREEKS
 70
     0
 40
0.0
 41
0.8
 50
0.0
 71
     0
 42
2.5
  3
SIMPLEX.shx
  4

  0
ENDTAB
  0
TABLE
  2
VIEW
  5
6
330
0
100
AcDbSymbolTable
 70
     0
  0
ENDTAB
  0
TABLE
  2
UCS
  5
7
330
0
100
AcDbSymbolTable
 70
     0
  0
ENDTAB
  0
TABLE
  2
APPID
  5
9
330
0
100
AcDbSymbolTable
 70
     1
  0
APPID
  5
12
330
9
100
AcDbSymbolTableRecord
100
AcDbRegAppTableRecord
  2
ACAD
 70
     0
  0
ENDTAB
  0
TABLE
  2
DIMSTYLE
  5
A
330
0
100
AcDbSymbolTable
 70
     1
100
AcDbDimStyleTable
 71
     1
340
9D
  0
DIMSTYLE
105
9D
102
{ACAD_REACTORS
330
3E6
330
3F3
330
40A
330
43F
330
4A8
102
}
330
A
100
AcDbSymbolTableRecord
100
AcDbDimStyleTableRecord
  2
Standard
 70
     0
340
11
  0
ENDTAB
  0
TABLE
  2
BLOCK_RECORD
  5
1
330
0
100
AcDbSymbolTable
 70
     8
  0
BLOCK_RECORD
  5
1E
102
{ACAD_XDICTIONARY
360
A0
102
}
330
1
100
AcDbSymbolTableRecord
100
AcDbBlockTableRecord
  2
*Model_Space
340
21
  0
BLOCK_RECORD
  5
1A
102
{ACAD_XDICTIONARY
360
A2
102
}
330
1
100
AcDbSymbolTableRecord
100
AcDbBlockTableRecord
  2
*Paper_Space
340
1D
  0
BLOCK_RECORD
  5
22
330
1
100
AcDbSymbolTableRecord
100
AcDbBlockTableRecord
  2
LOGO
340
0
102
{BLKREFS
331
9B
102
}
  0
BLOCK_RECORD
  5
3E7
330
1
100
AcDbSymbolTableRecord
100
AcDbBlockTableRecord
  2
*D3
340
0
  0
BLOCK_RECORD
  5
3F4
330
1
100
AcDbSymbolTableRecord
100
AcDbBlockTableRecord
  2
*D4
340
0
  0
BLOCK_RECORD
  5
40B
330
1
100
AcDbSymbolTableRecord
100
AcDbBlockTableRecord
  2
*D5
340
0
  0
BLOCK_RECORD
  5
440
330
1
100
AcDbSymbolTableRecord
100
AcDbBlockTableRecord
  2
*D6
340
0
  0
BLOCK_RECORD
  5
4A9
330
1
100
AcDbSymbolTableRecord
100
AcDbBlockTableRecord
  2
*D7
340
0
  0
ENDTAB
  0
ENDSEC
  0
SECTION
  2
BLOCKS
  0
BLOCK
  5
35
330
1E
100
AcDbEntity
  8
0
100
AcDbBlockBegin
  2
*Model_Space
 70
     0
 10
0.0
 20
0.0
 30
0.0
  3
*Model_Space
  1

  0
ENDBLK
  5
36
330
1E
100
AcDbEntity
  8
0
100
AcDbBlockEnd
  0
BLOCK
  5
33
330
1A
100
AcDbEntity
 67
     1
  8
0
100
AcDbBlockBegin
  2
*Paper_Space
 70
     0
 10
0.0
 20
0.0
 30
0.0
  3
*Paper_Space
  1

  0
ENDBLK
  5
34
330
1A
100
AcDbEntity
 67
     1
  8
0
100
AcDbBlockEnd
  0
BLOCK
  5
37
330
22
100
AcDbEntity
  8
0
100
AcDbBlockBegin
  2
LOGO
 70
     0
 10
0.0
 20
0.0
 30
0.0
  3
LOGO
  1

  0
ARC
  5
38
330
22
100
AcDbEntity
  8
0
100
AcDbCircle
 10
11.59973089678112
 20
-9.271599258481501
 30
0.0
 40
4.5
100
AcDbArc
 50
270.0
 51
231.0575587310159
  0
LINE
  5
39
330
22
100
AcDbEntity
  8
0
100
AcDbLine
 10
3.599730896781125
 20
-4.771599258481529
 30
0.0
 11
3.599730896781153
 21
-11.77159925848133
 31
0.0
  0
LINE
  5
3A
330
22
100
AcDbEntity
  8
0
100
AcDbLine
 10
2.599730896781125
 20
-4.771599258481529
 30
0.0
 11
2.599730896781153
 21
-11.77159925848133
 31
0.0
  0
CIRCLE
  5
3B
330
22
100
AcDbEntity
  8
0
100
AcDbCircle
 10
11.59973089678112
 20
-9.271599258481501
 30
0.0
 40
3.5
  0
ARC
  5
3C
330
22
100
AcDbEntity
  8
0
100
AcDbCircle
 10
31.59973089678115
 20
-9.271599258481472
 30
0.0
 40
4.5
100
AcDbArc
 50
270.0
 51
231.0575587310182
  0
LINE
  5
3D
330
22
100
AcDbEntity
  8
0
100
AcDbLine
 10
17.59973089678112
 20
-4.771599258481472
 30
0.0
 11
17.59973089678115
 21
-13.77159925848147
 31
0.0
  0
ARC
  5
3E
330
22
100
AcDbEntity
  8
0
100
AcDbCircle
 10
22.59973089678116
 20
-7.271599258481472
 30
0.0
 40
2.5
100
AcDbArc
 50
293.1161887722295
 51
90.0
  0
CIRCLE
  5
3F
330
22
100
AcDbEntity
  8
0
100
AcDbCircle
 10
31.59973089678115
 20
-9.271599258481472
 30
0.0
 40
3.5
  0
ARC
  5
40
330
22
100
AcDbEntity
  8
0
100
AcDbCircle
 10
4.599730896781153
 20
-11.77159925848133
 30
0.0
 40
1.0
100
AcDbArc
 50
180.0
 51
270.0
  0
ARC
  5
41
330
22
100
AcDbEntity
  8
0
100
AcDbCircle
 10
4.599730896781153
 20
-11.77159925848133
 30
0.0
 40
2.0
100
AcDbArc
 50
179.9999999999992
 51
270.0
  0
LINE
  5
42
330
22
100
AcDbEntity
  8
0
100
AcDbLine
 10
11.59973089678115
 20
-13.77159925848144
 30
0.0
 11
4.599730896781153
 21
-13.77159925848147
 31
0.0
  0
LINE
  5
43
330
22
100
AcDbEntity
  8
0
100
AcDbLine
 10
8.771303772034769
 20
-12.77159925848136
 30
0.0
 11
4.599730896781153
 21
-12.77159925848133
 31
0.0
  0
LINE
  5
44
330
22
100
AcDbEntity
  8
0
100
AcDbLine
 10
31.59973089678115
 20
-13.77159925848147
 30
0.0
 11
23.6715276665056
 21
-13.77159925848144
 31
0.0
  0
LINE
  5
45
330
22
100
AcDbEntity
  8
0
100
AcDbLine
 10
23.56565672307022
 20
-9.51278021337896
 30
0.0
 11
24.4388546544846
 21
-12.77159925848144
 31
0.0
  0
LINE
  5
46
330
22
100
AcDbEntity
  8
0
100
AcDbLine
 10
22.59973089678116
 20
-9.771599258481472
 30
0.0
 11
18.59973089678112
 21
-9.771599258481472
 31
0.0
  0
LINE
  5
47
330
22
100
AcDbEntity
  8
0
100
AcDbLine
 10
18.59973089678115
 20
-13.77159925848144
 30
0.0
 11
17.59973089678115
 21
-13.77159925848144
 31
0.0
  0
LINE
  5
48
330
22
100
AcDbEntity
  8
0
100
AcDbLine
 10
18.59973089678115
 20
-9.771599258481472
 30
0.0
 11
18.59973089678115
 21
-13.77159925848144
 31
0.0
  0
LINE
  5
49
330
22
100
AcDbEntity
  8
0
100
AcDbLine
 10
22.59973089678116
 20
-9.771599258481472
 30
0.0
 11
23.67152766650562
 21
-13.77159925848147
 31
0.0
  0
ARC
  5
4A
330
22
100
AcDbEntity
  8
0
100
AcDbCircle
 10
22.59973089678116
 20
-7.271599258481472
 30
0.0
 40
2.5
100
AcDbArc
 50
270.0
 51
270.0000000000007
  0
LINE
  5
4B
330
22
100
AcDbEntity
  8
0
100
AcDbLine
 10
28.77130377203494
 20
-12.77159925848147
 30
0.0
 11
24.43885465448463
 21
-12.77159925848144
 31
0.0
  0
LINE
  5
4C
330
22
100
AcDbEntity
  8
0
100
AcDbLine
 10
3.599730896781125
 20
-4.771599258481472
 30
0.0
 11
2.599730896781125
 21
-4.771599258481472
 31
0.0
  0
LINE
  5
4D
330
22
100
AcDbEntity
  8
0
100
AcDbLine
 10
22.59973089678116
 20
-8.771599258481472
 30
0.0
 11
18.59973089678115
 21
-8.771599258481472
 31
0.0
  0
LINE
  5
4E
330
22
100
AcDbEntity
  8
0
100
AcDbLine
 10
22.59973089678116
 20
-5.771599258481472
 30
0.0
 11
18.59973089678115
 21
-5.771599258481472
 31
0.0
  0
LINE
  5
4F
330
22
100
AcDbEntity
  8
0
100
AcDbLine
 10
22.59973089678116
 20
-4.771599258481472
 30
0.0
 11
17.59973089678115
 21
-4.771599258481472
 31
0.0
  0
LINE
  5
50
330
22
100
AcDbEntity
  8
0
100
AcDbLine
 10
18.59973089678115
 20
-5.771599258481472
 30
0.0
 11
18.59973089678115
 21
-8.771599258481472
 31
0.0
  0
ARC
  5
51
330
22
100
AcDbEntity
  8
0
100
AcDbCircle
 10
22.59973089678116
 20
-7.271599258481472
 30
0.0
 40
1.5
100
AcDbArc
 50
270.0
 51
90.0
  0
ENDBLK
  5
52
330
22
100
AcDbEntity
  8
0
100
AcDbBlockEnd
  0
BLOCK
  5
3F1
330
3E7
100
AcDbEntity
  8
0
100
AcDbBlockBegin
  2
*D3
 70
     1
 10
0.0
 20
0.0
 30
0.0
  3
*D3
  1

  0
LINE
  5
45E
330
3E7
100
AcDbEntity
  8
BEM
 62
     0
370
    -2
100
AcDbLine
 10
63.63271738758172
 20
108.4811323733529
 30
0.0
 11
45.54511008423523
 21
108.4811323733529
 31
0.0
  0
LINE
  5
45F
330
3E7
100
AcDbEntity
  8
BEM
 62
     0
370
    -2
100
AcDbLine
 10
126.1952740699521
 20
228.481132373353
 30
0.0
 11
45.54511008423525
 21
228.481132373353
 31
0.0
  0
LINE
  5
460
330
3E7
100
AcDbEntity
  8
BEM
 62
     0
370
    -2
100
AcDbLine
 10
46.54511008423523
 20
111.9811323733529
 30
0.0
 11
46.54511008423526
 21
224.981132373353
 31
0.0
  0
SOLID
  5
461
330
3E7
100
AcDbEntity
  8
BEM
 62
     0
100
AcDbTrace
 10
45.96177675090189
 20
111.9811323733529
 30
0.0
 11
47.12844341756857
 21
111.9811323733529
 31
0.0
 12
46.54511008423523
 22
108.4811323733529
 32
0.0
 13
46.54511008423523
 23
108.4811323733529
 33
0.0
  0
SOLID
  5
462
330
3E7
100
AcDbEntity
  8
BEM
 62
     0
100
AcDbTrace
 10
45.96177675090192
 20
224.981132373353
 30
0.0
 11
47.12844341756859
 21
224.981132373353
 31
0.0
 12
46.54511008423526
 22
228.481132373353
 32
0.0
 13
46.54511008423526
 23
228.481132373353
 33
0.0
  0
MTEXT
  5
463
330
3E7
100
AcDbEntity
  8
BEM
 62
     1
100
AcDbMText
 10
43.29511008423522
 20
168.4811323733529
 30
0.0
 40
3.5
 41
0.0
 71
     5
 72
     1
  1
\A1;1000
 11
0.0000000000000001
 21
1.0
 31
0.0
 73
     1
 44
1.0
  0
POINT
  5
464
330
3E7
100
AcDbEntity
  8
Defpoints
 62
     0
100
AcDbPoint
 10
64.63271738758172
 20
108.4811323733529
 30
0.0
  0
POINT
  5
465
330
3E7
100
AcDbEntity
  8
Defpoints
 62
     0
100
AcDbPoint
 10
127.1952740699521
 20
228.481132373353
 30
0.0
  0
POINT
  5
466
330
3E7
100
AcDbEntity
  8
Defpoints
 62
     0
100
AcDbPoint
 10
46.54511008423526
 20
228.481132373353
 30
0.0
  0
ENDBLK
  5
3F2
330
3E7
100
AcDbEntity
  8
0
100
AcDbBlockEnd
  0
BLOCK
  5
3FE
330
3F4
100
AcDbEntity
  8
0
100
AcDbBlockBegin
  2
*D4
 70
     1
 10
0.0
 20
0.0
 30
0.0
  3
*D4
  1

  0
LINE
  5
49A
330
3F4
100
AcDbEntity
  8
BEM
 62
     0
370
    -2
100
AcDbLine
 10
90.69527406995211
 20
192.9811323733529
 30
0.0
 11
90.69527406995211
 21
273.6312963590698
 31
0.0
  0
LINE
  5
49B
330
3F4
100
AcDbEntity
  8
BEM
 62
     0
370
    -2
100
AcDbLine
 10
174.6952740699522
 20
259.0874855232899
 30
0.0
 11
174.6952740699522
 21
273.6312963590698
 31
0.0
  0
LINE
  5
49C
330
3F4
100
AcDbEntity
  8
BEM
 62
     0
370
    -2
100
AcDbLine
 10
94.19527406995213
 20
272.6312963590698
 30
0.0
 11
171.1952740699522
 21
272.6312963590698
 31
0.0
  0
SOLID
  5
49D
330
3F4
100
AcDbEntity
  8
BEM
 62
     0
100
AcDbTrace
 10
94.19527406995213
 20
273.2146296924031
 30
0.0
 11
94.19527406995213
 21
272.0479630257365
 31
0.0
 12
90.69527406995211
 22
272.6312963590698
 32
0.0
 13
90.69527406995211
 23
272.6312963590698
 33
0.0
  0
SOLID
  5
49E
330
3F4
100
AcDbEntity
  8
BEM
 62
     0
100
AcDbTrace
 10
171.1952740699522
 20
273.2146296924031
 30
0.0
 11
171.1952740699522
 21
272.0479630257365
 31
0.0
 12
174.6952740699522
 22
272.6312963590698
 32
0.0
 13
174.6952740699522
 23
272.6312963590698
 33
0.0
  0
MTEXT
  5
49F
330
3F4
100
AcDbEntity
  8
BEM
 62
     1
100
AcDbMText
 10
132.6952740699522
 20
275.8812963590698
 30
0.0
 40
3.5
 41
0.0
 71
     5
 72
     1
  1
\A1;84
 73
     1
 44
1.0
  0
POINT
  5
4A0
330
3F4
100
AcDbEntity
  8
Defpoints
 62
     0
100
AcDbPoint
 10
90.69527406995211
 20
191.9811323733529
 30
0.0
  0
POINT
  5
4A1
330
3F4
100
AcDbEntity
  8
Defpoints
 62
     0
100
AcDbPoint
 10
174.6952740699522
 20
258.0874855232899
 30
0.0
  0
POINT
  5
4A2
330
3F4
100
AcDbEntity
  8
Defpoints
 62
     0
100
AcDbPoint
 10
174.6952740699522
 20
272.6312963590698
 30
0.0
  0
ENDBLK
  5
3FF
330
3F4
100
AcDbEntity
  8
0
100
AcDbBlockEnd
  0
BLOCK
  5
411
330
40B
100
AcDbEntity
  8
0
100
AcDbBlockBegin
  2
*D5
 70
     1
 10
0.0
 20
0.0
 30
0.0
  3
*D5
  1

  0
LINE
  5
42F
330
40B
100
AcDbEntity
  8
BEM
 62
     0
370
    -2
100
AcDbLine
 10
115.5264266949955
 20
201.6695676813759
 30
0.0
 11
101.8059138475189
 21
213.0614641424577
 31
0.0
  0
MTEXT
  5
430
330
40B
100
AcDbEntity
  8
BEM
 62
     1
100
AcDbMText
 10
112.0886690178889
 20
208.7480868248555
 30
0.0
 40
3.5
 41
0.0
 71
     5
 72
     1
  1
\A1;R36.5
 11
0.7693745521949472
 21
-0.6387979323971114
 31
0.0
 73
     1
 44
1.0
  0
SOLID
  5
431
330
40B
100
AcDbEntity
  8
BEM
 62
     0
100
AcDbTrace
 10
102.1785459747505
 20
213.5102659645714
 30
0.0
 11
101.4332817202872
 21
212.612662320344
 31
0.0
 12
99.11310291483658
 22
215.2972569058476
 32
0.0
 13
99.11310291483658
 23
215.2972569058476
 33
0.0
  0
POINT
  5
432
330
40B
100
AcDbEntity
  8
Defpoints
 62
     0
100
AcDbPoint
 10
99.11310291483658
 20
215.2972569058476
 30
0.0
  0
POINT
  5
433
330
40B
100
AcDbEntity
  8
Defpoints
 62
     0
100
AcDbPoint
 10
127.1952740699521
 20
191.981132373353
 30
0.0
  0
ENDBLK
  5
412
330
40B
100
AcDbEntity
  8
0
100
AcDbBlockEnd
  0
BLOCK
  5
44A
330
440
100
AcDbEntity
  8
0
100
AcDbBlockBegin
  2
*D6
 70
     1
 10
0.0
 20
0.0
 30
0.0
  3
*D6
  1

  0
LINE
  5
482
330
440
100
AcDbEntity
  8
BEM
 62
     0
370
    -2
100
AcDbLine
 10
64.19527406995212
 20
112.4811323733529
 30
0.0
 11
64.19527406995212
 21
94.4834416110042
 31
0.0
  0
LINE
  5
483
330
440
100
AcDbEntity
  8
BEM
 62
     0
370
    -2
100
AcDbLine
 10
117.1952740699521
 20
112.4811323733529
 30
0.0
 11
117.1952740699521
 21
94.4834416110042
 31
0.0
  0
LINE
  5
484
330
440
100
AcDbEntity
  8
BEM
 62
     0
370
    -2
100
AcDbLine
 10
67.69527406995212
 20
95.4834416110042
 30
0.0
 11
113.6952740699521
 21
95.4834416110042
 31
0.0
  0
SOLID
  5
485
330
440
100
AcDbEntity
  8
BEM
 62
     0
100
AcDbTrace
 10
67.69527406995212
 20
96.06677494433753
 30
0.0
 11
67.69527406995212
 21
94.90010827767086
 31
0.0
 12
64.19527406995212
 22
95.4834416110042
 32
0.0
 13
64.19527406995212
 23
95.4834416110042
 33
0.0
  0
SOLID
  5
486
330
440
100
AcDbEntity
  8
BEM
 62
     0
100
AcDbTrace
 10
113.6952740699521
 20
96.06677494433753
 30
0.0
 11
113.6952740699521
 21
94.90010827767086
 31
0.0
 12
117.1952740699521
 22
95.4834416110042
 32
0.0
 13
117.1952740699521
 23
95.4834416110042
 33
0.0
  0
MTEXT
  5
487
330
440
100
AcDbEntity
  8
BEM
 62
     1
100
AcDbMText
 10
90.69527406995211
 20
98.73344161100419
 30
0.0
 40
3.5
 41
0.0
 71
     5
 72
     1
  1
\A1;%%c53
 73
     1
 44
1.0
  0
POINT
  5
488
330
440
100
AcDbEntity
  8
Defpoints
 62
     0
100
AcDbPoint
 10
64.19527406995212
 20
113.4811323733529
 30
0.0
  0
POINT
  5
489
330
440
100
AcDbEntity
  8
Defpoints
 62
     0
100
AcDbPoint
 10
117.1952740699521
 20
113.4811323733529
 30
0.0
  0
POINT
  5
48A
330
440
100
AcDbEntity
  8
Defpoints
 62
     0
100
AcDbPoint
 10
117.1952740699521
 20
95.4834416110042
 30
0.0
  0
ENDBLK
  5
44B
330
440
100
AcDbEntity
  8
0
100
AcDbBlockEnd
  0
BLOCK
  5
4B5
330
4A9
100
AcDbEntity
  8
0
100
AcDbBlockBegin
  2
*D7
 70
     1
 10
0.0
 20
0.0
 30
0.0
  3
*D7
  1

  0
LINE
  5
4B7
330
4A9
100
AcDbEntity
  8
SCHRAFF
 62
     0
370
    -2
100
AcDbLine
 10
90.69527406995213
 20
229.481132373353
 30
0.0
 11
90.69527406995215
 21
273.6312963590698
 31
0.0
  0
LINE
  5
4B8
330
4A9
100
AcDbEntity
  8
SCHRAFF
 62
     0
370
    -2
100
AcDbLine
 10
89.69527406995213
 20
228.481132373353
 30
0.0
 11
45.54511008423527
 21
228.481132373353
 31
0.0
  0
ARC
  5
4B9
330
4A9
100
AcDbEntity
  8
SCHRAFF
 62
     0
370
    -2
100
AcDbCircle
 10
90.69527406995215
 20
228.481132373353
 30
0.0
 40
44.15016398571684
100
AcDbArc
 50
94.54330762152626
 51
175.4566923784737
  0
SOLID
  5
4BA
330
4A9
100
AcDbEntity
  8
SCHRAFF
 62
     0
100
AcDbTrace
 10
87.17490277710467
 20
273.0754401851817
 30
0.0
 11
87.22114647095207
 21
271.9096903698737
 31
0.0
 12
90.69527406995215
 22
272.6312963590698
 32
0.0
 13
90.69527406995215
 23
272.6312963590698
 33
0.0
  0
SOLID
  5
4BB
330
4A9
100
AcDbEntity
  8
SCHRAFF
 62
     0
100
AcDbTrace
 10
47.26671607343135
 20
231.9552599723531
 30
0.0
 11
46.10096625812345
 21
232.0015036662004
 31
0.0
 12
46.54511008423527
 22
228.481132373353
 32
0.0
 13
46.54511008423527
 23
228.481132373353
 33
0.0
  0
MTEXT
  5
4BC
330
4A9
100
AcDbEntity
  8
SCHRAFF
 62
     1
100
AcDbMText
 10
57.17829668629743
 20
261.9981097570077
 30
0.0
 40
3.5
 41
0.0
 71
     5
 72
     1
  1
\A1;90°
 11
0.7071067811865476
 21
0.7071067811865475
 31
0.0
 73
     1
 44
1.0
  0
POINT
  5
4BD
330
4A9
100
AcDbEntity
  8
Defpoints
 62
     0
100
AcDbPoint
 10
68.62019207709375
 20
266.7162959662326
 30
0.0
  0
POINT
  5
4BE
330
4A9
100
AcDbEntity
  8
Defpoints
 62
     0
100
AcDbPoint
 10
90.69527406995215
 20
191.9811323733529
 30
0.0
  0
POINT
  5
4BF
330
4A9
100
AcDbEntity
  8
Defpoints
 62
     0
100
AcDbPoint
 10
179.6952740699521
 20
228.4811323733529
 30
0.0
  0
POINT
  5
4C0
330
4A9
100
AcDbEntity
  8
Defpoints
 62
     0
100
AcDbPoint
 10
127.1952740699521
 20
228.481132373353
 30
0.0
  0
POINT
  5
4C1
330
4A9
100
AcDbEntity
  8
Defpoints
 62
     0
100
AcDbPoint
 10
90.69527406995211
 20
103.4811323733529
 30
0.0
  0
ENDBLK
  5
4B6
330
4A9
100
AcDbEntity
  8
0
100
AcDbBlockEnd
  0
ENDSEC
  0
SECTION
  2
ENTITIES
  0
LINE
  5
57
330
1E
100
AcDbEntity
  8
STEMPEL
100
AcDbLine
 10
205.0
 20
55.00000000000003
 30
0.0
 11
19.99999999999998
 21
55.0
 31
0.0
  0
LINE
  5
58
330
1E
100
AcDbEntity
  8
STEMPEL
100
AcDbLine
 10
73.00000000000006
 20
54.99999999999997
 30
0.0
 11
73.0
 21
4.999999999999985
 31
0.0
  0
LINE
  5
59
330
1E
100
AcDbEntity
  8
STEMPEL
100
AcDbLine
 10
115.0
 20
55.00000000000003
 30
0.0
 11
115.0
 21
4.999999999999985
 31
0.0
  0
LINE
  5
5A
330
1E
100
AcDbEntity
  8
STEMPEL
100
AcDbLine
 10
166.0
 20
54.99999999999989
 30
0.0
 11
166.0
 21
20.0
 31
0.0
  0
LINE
  5
5B
330
1E
100
AcDbEntity
  8
STEMPEL
100
AcDbLine
 10
72.99999999999994
 20
14.99999999999998
 30
0.0
 11
19.99999999999998
 21
14.99999999999998
 31
0.0
  0
LINE
  5
5C
330
1E
100
AcDbEntity
  8
STEMPEL
100
AcDbLine
 10
205.0
 20
20.0
 30
0.0
 11
73.00000000000006
 21
19.99999999999998
 31
0.0
  0
LINE
  5
5D
330
1E
100
AcDbEntity
  8
STEMPEL
100
AcDbLine
 10
205.0
 20
40.0
 30
0.0
 11
73.00000000000006
 21
39.99999999999997
 31
0.0
  0
LINE
  5
5E
330
1E
100
AcDbEntity
  8
VOLL
100
AcDbLine
 10
27.00000000000005
 20
55.00000000000003
 30
0.0
 11
26.99999999999999
 21
4.999999999999985
 31
0.0
  0
LINE
  5
5F
330
1E
100
AcDbEntity
  8
VOLL
100
AcDbLine
 10
52.00000000000006
 20
54.99999999999997
 30
0.0
 11
52.0
 21
4.999999999999985
 31
0.0
  0
LINE
  5
60
330
1E
100
AcDbEntity
  8
VOLL
100
AcDbLine
 10
62.00000000000006
 20
54.99999999999997
 30
0.0
 11
62.0
 21
4.999999999999985
 31
0.0
  0
LINE
  5
61
330
1E
100
AcDbEntity
  8
VOLL
100
AcDbLine
 10
82.00000000000006
 20
39.99999999999997
 30
0.0
 11
82.00000000000006
 21
19.99999999999998
 31
0.0
  0
LINE
  5
62
330
1E
100
AcDbEntity
  8
VOLL
100
AcDbLine
 10
95.00000000000005
 20
54.99999999999992
 30
0.0
 11
95.0
 21
19.99999999999998
 31
0.0
  0
LINE
  5
63
330
1E
100
AcDbEntity
  8
HILF
100
AcDbLine
 10
20.00000000000004
 20
50.00000000000003
 30
0.0
 11
73.00000000000006
 21
50.00000000000003
 31
0.0
  0
LINE
  5
64
330
1E
100
AcDbEntity
  8
HILF
100
AcDbLine
 10
20.00000000000004
 20
45.00000000000002
 30
0.0
 11
73.00000000000006
 21
45.00000000000002
 31
0.0
  0
LINE
  5
65
330
1E
100
AcDbEntity
  8
HILF
100
AcDbLine
 10
20.00000000000004
 20
39.99999999999997
 30
0.0
 11
73.00000000000006
 21
39.99999999999997
 31
0.0
  0
LINE
  5
66
330
1E
100
AcDbEntity
  8
HILF
100
AcDbLine
 10
20.00000000000004
 20
34.99999999999997
 30
0.0
 11
73.00000000000006
 21
34.99999999999997
 31
0.0
  0
LINE
  5
67
330
1E
100
AcDbEntity
  8
HILF
100
AcDbLine
 10
20.00000000000004
 20
29.99999999999999
 30
0.0
 11
73.00000000000006
 21
29.99999999999999
 31
0.0
  0
LINE
  5
68
330
1E
100
AcDbEntity
  8
HILF
100
AcDbLine
 10
20.00000000000004
 20
24.99999999999999
 30
0.0
 11
73.00000000000006
 21
24.99999999999999
 31
0.0
  0
LINE
  5
69
330
1E
100
AcDbEntity
  8
HILF
100
AcDbLine
 10
20.00000000000004
 20
19.99999999999998
 30
0.0
 11
73.00000000000006
 21
19.99999999999998
 31
0.0
  0
LINE
  5
6A
330
1E
100
AcDbEntity
  8
HILF
100
AcDbLine
 10
73.00000000000006
 20
34.99999999999997
 30
0.0
 11
115.0
 21
34.99999999999997
 31
0.0
  0
LINE
  5
6B
330
1E
100
AcDbEntity
  8
HILF
100
AcDbLine
 10
73.00000000000006
 20
29.99999999999999
 30
0.0
 11
115.0
 21
29.99999999999999
 31
0.0
  0
LINE
  5
6C
330
1E
100
AcDbEntity
  8
HILF
100
AcDbLine
 10
73.00000000000006
 20
24.99999999999999
 30
0.0
 11
115.0
 21
24.99999999999999
 31
0.0
  0
LINE
  5
6D
330
1E
100
AcDbEntity
  8
HILF
100
AcDbLine
 10
117.3868400548473
 20
42.01879123782069
 30
0.0
 11
162.4176958278155
 21
42.01879123782069
 31
0.0
  0
LINE
  5
6E
330
1E
100
AcDbEntity
  8
HILF
100
AcDbLine
 10
117.3868400548473
 20
34.99999999999997
 30
0.0
 11
162.4176958278155
 21
34.99999999999997
 31
0.0
  0
LINE
  5
6F
330
1E
100
AcDbEntity
  8
HILF
100
AcDbLine
 10
117.3868400548473
 20
29.99999999999999
 30
0.0
 11
162.4176958278155
 21
29.99999999999999
 31
0.0
  0
LINE
  5
70
330
1E
100
AcDbEntity
  8
HILF
100
AcDbLine
 10
117.3868400548473
 20
24.99999999999999
 30
0.0
 11
162.4176958278155
 21
24.99999999999999
 31
0.0
  0
LINE
  5
71
330
1E
100
AcDbEntity
  8
VOLL
100
AcDbLine
 10
166.0
 20
30.0
 30
0.0
 11
205.0
 21
30.0
 31
0.0
  0
LINE
  5
72
330
1E
100
AcDbEntity
  8
HILF
100
AcDbLine
 10
168.3619308148496
 20
41.88991818477913
 30
0.0
 11
202.4294419663364
 21
41.88991818477913
 31
0.0
  0
LINE
  5
73
330
1E
100
AcDbEntity
  8
HILF
100
AcDbLine
 10
116.7454849644942
 20
7.446991290141568
 30
0.0
 11
202.4294419663364
 21
7.446991290141568
 31
0.0
  0
TEXT
  5
74
330
1E
100
AcDbEntity
  8
TEXT
100
AcDbText
 10
34.4308298981591
 20
9.336909474920659
 30
0.0
 40
2.0
  1
Änderung
 41
0.8
  7
GREEKS
 72
     1
 11
39.80225846958767
 21
9.336909474920659
 31
0.0
100
AcDbText
  0
TEXT
  5
75
330
1E
100
AcDbEntity
  8
TEXT
100
AcDbText
 10
76.75817860751886
 20
51.23104475435443
 30
0.0
 40
2.5
  1
Maßstab
 41
0.8
  7
GREEKS
100
AcDbText
  0
TEXT
  5
76
330
1E
100
AcDbEntity
  8
TEXT
100
AcDbText
 10
97.14294773670257
 20
51.20920842174095
 30
0.0
 40
2.5
  1
Zul. Abw.
 41
0.8
  7
GREEKS
100
AcDbText
  0
TEXT
  5
77
330
1E
100
AcDbEntity
  8
TEXT
100
AcDbText
 10
117.4389701904505
 20
51.27446640058898
 30
0.0
 40
2.5
  1
Benennung
 41
0.8
  7
GREEKS
100
AcDbText
  0
TEXT
  5
78
330
1E
100
AcDbEntity
  8
TEXT
100
AcDbText
 10
168.089377478817
 20
51.15660172685682
 30
0.0
 40
2.5
  1
Zeichnungs Nr.
 41
0.8
  7
GREEKS
100
AcDbText
  0
TEXT
  5
79
330
1E
100
AcDbEntity
  8
TEXT
100
AcDbText
 10
117.371119195568
 20
15.42280285096528
 30
0.0
 40
2.5
  1
Bauvorhaben
 41
0.8
  7
GREEKS
100
AcDbText
  0
TEXT
  5
7A
330
1E
100
AcDbEntity
  8
TEXT
100
AcDbText
 10
168.3619308148496
 20
36.59059118549985
 30
0.0
 40
2.5
  1
Ersatz für:
 41
0.8
  7
GREEKS
100
AcDbText
  0
TEXT
  5
7B
330
1E
100
AcDbEntity
  8
TEXT
100
AcDbText
 10
24.13320553522878
 20
6.827329230135958
 30
0.0
 40
2.0
  1
Index
 50
90.0
 41
0.8
  7
GREEKS
100
AcDbText
  0
TEXT
  5
7C
330
1E
100
AcDbEntity
  8
TEXT
100
AcDbText
 10
55.04673380377405
 20
9.33578134669905
 30
0.0
 40
2.0
  1
Tag
 41
0.8
  7
GREEKS
 72
     1
 11
56.91340047044072
 21
9.33578134669905
 31
0.0
100
AcDbText
  0
TEXT
  5
7D
330
1E
100
AcDbEntity
  8
TEXT
100
AcDbText
 10
64.50613721932963
 20
9.29662108483204
 30
0.0
 40
2.0
  1
Name
 41
0.8
  7
GREEKS
 72
     1
 11
67.66804198123439
 21
9.29662108483204
 31
0.0
100
AcDbText
  0
TEXT
  5
7E
330
1E
100
AcDbEntity
  8
TEXT
100
AcDbText
 10
86.16558365768254
 20
36.65940250614963
 30
0.0
 40
2.0
  1
Tag
 41
0.8
  7
GREEKS
100
AcDbText
  0
TEXT
  5
7F
330
1E
100
AcDbEntity
  8
TEXT
100
AcDbText
 10
101.2313292113147
 20
36.65480545957612
 30
0.0
 40
2.0
  1
Name
 41
0.8
  7
GREEKS
100
AcDbText
  0
TEXT
  5
80
330
1E
100
AcDbEntity
  8
TEXT
100
AcDbText
 10
73.79180635838077
 20
31.81495184808982
 30
0.0
 40
2.0
  1
Gez.
 41
0.8
  7
GREEKS
100
AcDbText
  0
TEXT
  5
81
330
1E
100
AcDbEntity
  8
TEXT
100
AcDbText
 10
73.77575432858361
 20
26.84463145714189
 30
0.0
 40
2.0
  1
Gepr.
 41
0.8
  7
GREEKS
100
AcDbText
  0
TEXT
  5
82
330
1E
100
AcDbEntity
  8
TEXT
100
AcDbText
 10
73.80033886936519
 20
21.76473194824904
 30
0.0
 40
2.0
  1
Norm.
 41
0.8
  7
GREEKS
100
AcDbText
  0
LINE
  5
83
330
1E
100
AcDbEntity
  8
STEMPEL
100
AcDbLine
 10
24.99999999999995
 20
5.0
 30
0.0
 11
205.0
 21
5.0
 31
0.0
  0
TEXT
  5
84
330
1E
100
AcDbEntity
  8
TEXT
100
AcDbText
 10
168.6200430748503
 20
26.03708088939301
 30
0.0
 40
2.5
  1
ersetzt durch:
 41
0.8
  7
GREEKS
100
AcDbText
  0
LINE
  5
85
330
1E
100
AcDbEntity
  8
STEMPEL
100
AcDbLine
 10
205.0
 20
5.0
 30
0.0
 11
19.99999999999994
 21
5.0
 31
0.0
  0
LINE
  5
86
330
1E
100
AcDbEntity
  8
STEMPEL
100
AcDbLine
 10
205.0
 20
5.0
 30
0.0
 11
205.0
 21
292.0
 31
0.0
  0
LINE
  5
87
330
1E
100
AcDbEntity
  8
STEMPEL
100
AcDbLine
 10
20.0
 20
5.0
 30
0.0
 11
19.99999999999994
 21
292.0
 31
0.0
  0
LINE
  5
88
330
1E
100
AcDbEntity
  8
STEMPEL
100
AcDbLine
 10
205.0
 20
292.0
 30
0.0
 11
19.99999999999994
 21
292.0
 31
0.0
  0
LINE
  5
89
330
1E
100
AcDbEntity
  8
HILF
100
AcDbLine
 10
0.0
 20
0.0
 30
0.0
 11
-0.0000000000000568
 21
297.0
 31
0.0
  0
LINE
  5
8A
330
1E
100
AcDbEntity
  8
HILF
100
AcDbLine
 10
210.0
 20
297.0000000000001
 30
0.0
 11
0.0
 21
297.0
 31
0.0
  0
LINE
  5
8B
330
1E
100
AcDbEntity
  8
HILF
100
AcDbLine
 10
210.0
 20
0.0
 30
0.0
 11
0.0
 21
0.0
 31
0.0
  0
LINE
  5
8C
330
1E
100
AcDbEntity
  8
HILF
100
AcDbLine
 10
15.54383567856928
 20
148.5
 30
0.0
 11
0.0000000000000568
 21
148.5
 31
0.0
  0
TEXT
  5
8D
330
1E
100
AcDbEntity
  8
TEXT
100
AcDbText
 10
74.31105491105199
 20
36.57012735575833
 30
0.0
 40
2.0
  1
2011
 41
0.8
  7
GREEKS
100
AcDbText
  0
LINE
  5
8E
330
1E
100
AcDbEntity
  8
HILF
100
AcDbLine
 10
210.0
 20
-0.0000000000000568
 30
0.0
 11
210.0
 21
297.0
 31
0.0
  0
TEXT
  5
8F
330
1E
100
AcDbEntity
  8
VOLL
100
AcDbText
 10
78.07675471698113
 20
31.02594776470585
 30
0.0
 40
1.8
  1

  7
GREEKS
100
AcDbText
  0
TEXT
  5
90
330
1E
100
AcDbEntity
  8
TEXT
100
AcDbText
 10
20.92754975488837
 20
55.83599999999997
 30
0.0
 40
2.5
  1
Erstellt mit AUTOCAD 2004
 41
0.8
  7
GREEKS
100
AcDbText
  0
TEXT
  5
91
330
1E
100
AcDbEntity
  8
TEXT
100
AcDbText
 10
102.2108024290628
 20
31.54481959861755
 30
0.0
 40
2.0
  1
Koeh
 41
0.8
  7
GREEKS
 72
     1
 11
104.8393738576343
 21
31.54481959861755
 31
0.0
100
AcDbText
  0
TEXT
  5
92
330
1E
100
AcDbEntity
  8
TEXT
 62
     1
100
AcDbText
 10
172.8089251880514
 20
44.07450714456979
 30
0.0
 40
3.5
  1
00505.050O
 41
0.8
  7
GREEKS
 72
     1
 11
185.2089251880514
 21
44.07450714456979
 31
0.0
100
AcDbText
  0
TEXT
  5
93
330
1E
100
AcDbEntity
  8
TEXT
 62
     1
100
AcDbText
 10
80.25031532409434
 20
44.07450714456979
 30
0.0
 40
3.5
  1
1:1
 41
0.8
  7
GREEKS
100
AcDbText
  0
TEXT
  5
94
330
1E
100
AcDbEntity
  8
TEXT
100
AcDbText
 10
85.35187950649897
 20
31.55382520412866
 30
0.0
 40
2.0
  1
31.03.
 41
0.8
  7
GREEKS
 72
     1
 11
88.70426045887993
 21
31.55382520412866
 31
0.0
100
AcDbText
  0
TEXT
  5
95
330
1E
100
AcDbEntity
  8
TEXT
 62
     1
100
AcDbText
 10
118.4467865528701
 20
43.70874394626889
 30
0.0
 40
3.5
  1
Winkelbogen 90°
 41
0.8
  7
GREEKS
100
AcDbText
  0
TEXT
  5
96
330
1E
100
AcDbEntity
  8
TEXT
100
AcDbText
 10
117.5648195562657
 20
35.75167208792644
 30
0.0
 40
2.5
  1
DN50 zur Wanddurchführung
 41
0.8
  7
GREEKS
100
AcDbText
  0
TEXT
  5
97
330
1E
100
AcDbEntity
  8
TEXT
100
AcDbText
 10
117.5648195562657
 20
31.05790353387428
 30
0.0
 40
2.5
  1

 41
0.8
  7
GREEKS
100
AcDbText
  0
TEXT
  5
98
330
1E
100
AcDbEntity
  8
TEXT
100
AcDbText
 10
117.5648195562657
 20
25.82005971521079
 30
0.0
 40
2.5
  1
EDV-Art.Nr. 00505.050O
 41
0.8
  7
GREEKS
100
AcDbText
  0
TEXT
  5
99
330
1E
100
AcDbEntity
  8
TEXT
100
AcDbText
 10
117.4918750788913
 20
21.31487076511316
 30
0.0
 40
2.0
  1
00505.050O.DWG
 41
0.8
  7
GREEKS
100
AcDbText
  0
TEXT
  5
9A
330
1E
100
AcDbEntity
  8
TEXT
100
AcDbText
 10
96.31306610404202
 20
45.38181920511511
 30
0.0
 40
2.0
  1
DIN EN1123-2
 41
0.8
  7
GREEKS
 72
     1
 11
104.8083041992801
 21
45.38181920511511
 31
0.0
100
AcDbText
  0
INSERT
  5
9B
330
1E
100
AcDbEntity
  8
STEMPEL
100
AcDbBlockReference
  2
LOGO
 10
75.4977742728897
 20
22.51052638224161
 30
0.0
  0
TEXT
  5
118
330
1E
100
AcDbEntity
  8
BEM
100
AcDbText
 10
208.6511461928583
 20
5.083950539994247
 30
0.0
 40
2.0
  1
Diese Zeichnung ist urheberrechtlich geschützt und bleibt unser Eigentum. Sie darf weder ganz noch teilweise verfielfältigt und nicht an Dritte weitergegeben werden.
 50
90.0
 41
0.8
  7
GREEKS
100
AcDbText
  0
TEXT
  5
1CE
330
1E
100
AcDbEntity
  8
TEXT
 62
     1
100
AcDbText
 10
158.6163910561498
 20
230.5421376979784
 30
0.0
 40
3.5
  1
DN50
 41
0.8
  7
GREEKS
100
AcDbText
  0
TEXT
  5
2A9
330
1E
100
AcDbEntity
  8
TEXT
 62
     1
100
AcDbText
 10
98.32802422862449
 20
69.90022919477588
 30
0.0
 40
3.5
  1
Werkstoff: E195 EN10305 feuerverzinkt
 41
0.8
  7
GREEKS
100
AcDbText
  0
TEXT
  5
2C2
330
1E
100
AcDbEntity
  8
TEXT
 62
     1
100
AcDbText
 10
134.3773012135033
 20
100.7817814191551
 30
0.0
 40
3.5
  1
Rohrende leicht eingezogen
 41
0.8
  7
GREEKS
100
AcDbText
  0
LINE
  5
309
330
1E
100
AcDbEntity
  8
MITTEL
100
AcDbLine
 10
179.6952740699521
 20
228.4811323733529
 30
0.0
 11
127.1952740699521
 21
228.481132373353
 31
0.0
  0
LINE
  5
30A
330
1E
100
AcDbEntity
  8
MITTEL
100
AcDbLine
 10
90.69527406995211
 20
191.9811323733529
 30
0.0
 11
90.69527406995211
 21
103.4811323733529
 31
0.0
  0
LINE
  5
30D
330
1E
100
AcDbEntity
  8
STEMPEL
100
AcDbLine
 10
116.7578307523225
 20
108.4811323733529
 30
0.0
 11
64.63271738758172
 21
108.4811323733529
 31
0.0
  0
TEXT
  5
33F
330
1E
100
AcDbEntity
  8
VOLL
100
AcDbText
 10
303.0767547169811
 20
203.0259477647058
 30
0.0
 40
1.8
  1

  7
GREEKS
100
AcDbText
  0
ARC
  5
341
330
1E
100
AcDbEntity
  8
STEMPEL
100
AcDbCircle
 10
166.3127727272913
 20
216.481132373353
 30
0.0
 40
19.5
100
AcDbArc
 50
270.0
 51
295.4594285688045
  0
LINE
  5
344
330
1E
100
AcDbEntity
  8
STEMPEL
100
AcDbLine
 10
166.3127727272913
 20
196.9811323733529
 30
0.0
 11
163.8172383679497
 21
196.9811323733529
 31
0.0
  0
LINE
  5
346
330
1E
100
AcDbEntity
  8
STEMPEL
100
AcDbLine
 10
152.1952740699521
 20
198.981132373353
 30
0.0
 11
142.1036009831482
 21
198.981132373353
 31
0.0
  0
ARC
  5
347
330
1E
100
AcDbEntity
  8
STEMPEL
100
AcDbCircle
 10
152.1952740699522
 20
188.9811323733529
 30
0.0
 40
10.0
100
AcDbArc
 50
70.53690055531125
 51
89.99999999999998
  0
ARC
  5
349
330
1E
100
AcDbEntity
  8
STEMPEL
100
AcDbCircle
 10
131.5679472302954
 20
193.9811323733529
 30
0.0
 40
8.0
100
AcDbArc
 50
58.2116693829475
 51
89.99999999999998
  0
ARC
  5
34B
330
1E
100
AcDbEntity
  8
STEMPEL
100
AcDbCircle
 10
142.1036009831481
 20
210.981132373353
 30
0.0
 40
12.0
100
AcDbArc
 50
238.2116693829475
 51
270.0
  0
LINE
  5
34E
330
1E
100
AcDbEntity
  8
STEMPEL
100
AcDbLine
 10
131.5679472302954
 20
201.9811323733529
 30
0.0
 11
127.1952740699521
 21
201.9811323733529
 31
0.0
  0
ARC
  5
350
330
1E
100
AcDbEntity
  8
STEMPEL
100
AcDbCircle
 10
163.8572740699521
 20
221.981132373353
 30
0.0
 40
25.00003205712822
100
AcDbArc
 50
250.5369005553113
 51
270.0917549919722
  0
ARC
  5
351
330
1E
100
AcDbEntity
  8
STEMPEL
100
AcDbCircle
 10
166.3127727272913
 20
240.4811323733529
 30
0.0
 40
19.5
100
AcDbArc
 50
64.54057143119181
 51
89.99999999999998
  0
LINE
  5
353
330
1E
100
AcDbEntity
  8
STEMPEL
100
AcDbLine
 10
152.1952740699521
 20
257.9811323733529
 30
0.0
 11
142.1036009831481
 21
257.9811323733529
 31
0.0
  0
ARC
  5
356
330
1E
100
AcDbEntity
  8
STEMPEL
100
AcDbCircle
 10
131.5679472302953
 20
262.9811323733529
 30
0.0
 40
8.0
100
AcDbArc
 50
270.0
 51
301.7883306170525
  0
ARC
  5
359
330
1E
100
AcDbEntity
  8
STEMPEL
100
AcDbCircle
 10
142.1036009831481
 20
245.9811323733529
 30
0.0
 40
12.0
100
AcDbArc
 50
89.99999999999998
 51
121.7883306170524
  0
LINE
  5
35A
330
1E
100
AcDbEntity
  8
STEMPEL
100
AcDbLine
 10
131.5679472302953
 20
254.9811323733529
 30
0.0
 11
127.1952740699521
 21
254.9811323733529
 31
0.0
  0
LINE
  5
35D
330
1E
100
AcDbEntity
  8
STEMPEL
100
AcDbLine
 10
174.695274069952
 20
198.8740875241615
 30
0.0
 11
174.6952740699522
 21
258.0874855232899
 31
0.0
  0
ARC
  5
35E
330
1E
100
AcDbEntity
  8
STEMPEL
100
AcDbCircle
 10
163.8572740699521
 20
234.9811323733527
 30
0.0
 40
25.00003205712822
100
AcDbArc
 50
89.90824500802782
 51
109.4630994446887
  0
ARC
  5
360
330
1E
100
AcDbEntity
  8
STEMPEL
100
AcDbCircle
 10
152.1952740699521
 20
267.9811323733529
 30
0.0
 40
10.0
100
AcDbArc
 50
270.0
 51
289.4630994446887
  0
LINE
  5
361
330
1E
100
AcDbEntity
  8
STEMPEL
100
AcDbLine
 10
166.3127727272913
 20
259.9811323733529
 30
0.0
 11
163.8172383679497
 21
259.9811323733528
 31
0.0
  0
LINE
  5
366
330
1E
100
AcDbEntity
  8
HILF
100
AcDbLine
 10
133.7588374603161
 20
203.2250492920621
 30
0.0
 11
133.7588374603161
 21
253.7372154546437
 31
0.0
  0
LINE
  5
367
330
1E
100
AcDbEntity
  8
HILF
100
AcDbLine
 10
138.817265638117
 20
201.0086702901962
 30
0.0
 11
138.817265638117
 21
255.9535944565097
 31
0.0
  0
LINE
  5
368
330
1E
100
AcDbEntity
  8
HILF
100
AcDbLine
 10
153.8855953518664
 20
200.3562285911397
 30
0.0
 11
153.8855953518664
 21
256.6060361555661
 31
0.0
  0
ARC
  5
369
330
1E
100
AcDbEntity
  8
MITTEL
100
AcDbCircle
 10
127.1952740699521
 20
191.9811323733529
 30
0.0
 40
36.5
100
AcDbArc
 50
90.0
 51
180.0
  0
ARC
  5
36A
102
{ACAD_REACTORS
330
389
102
}
330
1E
100
AcDbEntity
  8
STEMPEL
100
AcDbCircle
 10
127.1952740699521
 20
191.9811323733529
 30
0.0
 40
63.0
100
AcDbArc
 50
90.0
 51
180.0
  0
ARC
  5
36B
102
{ACAD_REACTORS
330
389
102
}
330
1E
100
AcDbEntity
  8
STEMPEL
100
AcDbCircle
 10
127.1952740699521
 20
191.9811323733529
 30
0.0
 40
10.0
100
AcDbArc
 50
90.0
 51
180.0
  0
LINE
  5
36C
102
{ACAD_REACTORS
330
389
102
}
330
1E
100
AcDbEntity
  8
STEMPEL
100
AcDbLine
 10
64.19527406995212
 20
191.9811323733529
 30
0.0
 11
64.19527406995211
 21
160.8983851260515
 31
0.0
  0
LINE
  5
36D
102
{ACAD_REACTORS
330
389
102
}
330
1E
100
AcDbEntity
  8
STEMPEL
100
AcDbLine
 10
117.1952740699521
 20
191.9811323733529
 30
0.0
 11
117.1952740699521
 21
160.8983851260514
 31
0.0
  0
LINE
  5
36E
330
1E
100
AcDbEntity
  8
HILF
100
AcDbLine
 10
115.6895443136371
 20
113.4811323733529
 30
0.0
 11
65.70100382626712
 21
113.4811323733529
 31
0.0
  0
LINE
  5
36F
330
1E
100
AcDbEntity
  8
STEMPEL
100
AcDbLine
 10
64.19527406995212
 20
113.4811323733529
 30
0.0
 11
64.63271738758172
 21
108.4811323733529
 31
0.0
  0
LINE
  5
370
330
1E
100
AcDbEntity
  8
STEMPEL
100
AcDbLine
 10
117.1952740699521
 20
113.4811323733529
 30
0.0
 11
116.7578307523225
 21
108.4811323733529
 31
0.0
  0
LINE
  5
373
330
1E
100
AcDbEntity
  8
STEMPEL
100
AcDbLine
 10
117.1952740699521
 20
191.9811323733529
 30
0.0
 11
64.19527406995212
 21
191.9811323733529
 31
0.0
  0
ARC
  5
377
330
1E
100
AcDbEntity
  8
SCHRAFF
100
AcDbCircle
 10
64.19527406995212
 20
191.9811323733529
 30
0.0
 40
5.0
100
AcDbArc
 50
323.130102354156
 51
36.86989764584402
  0
ARC
  5
378
330
1E
100
AcDbEntity
  8
SCHRAFF
100
AcDbCircle
 10
69.19527406995212
 20
191.9811323733529
 30
0.0
 40
5.0
100
AcDbArc
 50
323.130102354156
 51
36.86989764584402
  0
ARC
  5
379
330
1E
100
AcDbEntity
  8
SCHRAFF
100
AcDbCircle
 10
79.19527406995212
 20
191.9811323733529
 30
0.0
 40
5.0
100
AcDbArc
 50
323.130102354156
 51
36.86989764584402
  0
ARC
  5
37A
330
1E
100
AcDbEntity
  8
SCHRAFF
100
AcDbCircle
 10
74.19527406995212
 20
191.9811323733529
 30
0.0
 40
5.0
100
AcDbArc
 50
323.130102354156
 51
36.86989764584402
  0
ARC
  5
37B
330
1E
100
AcDbEntity
  8
SCHRAFF
100
AcDbCircle
 10
94.19527406995213
 20
191.9811323733529
 30
0.0
 40
5.0
100
AcDbArc
 50
323.130102354156
 51
36.86989764584402
  0
ARC
  5
37C
330
1E
100
AcDbEntity
  8
SCHRAFF
100
AcDbCircle
 10
99.19527406995213
 20
191.9811323733529
 30
0.0
 40
5.0
100
AcDbArc
 50
323.130102354156
 51
36.86989764584402
  0
ARC
  5
37D
330
1E
100
AcDbEntity
  8
SCHRAFF
100
AcDbCircle
 10
89.19527406995213
 20
191.9811323733529
 30
0.0
 40
5.0
100
AcDbArc
 50
323.130102354156
 51
36.86989764584402
  0
ARC
  5
37E
330
1E
100
AcDbEntity
  8
SCHRAFF
100
AcDbCircle
 10
84.19527406995213
 20
191.9811323733529
 30
0.0
 40
5.0
100
AcDbArc
 50
323.130102354156
 51
36.86989764584402
  0
ARC
  5
37F
330
1E
100
AcDbEntity
  8
SCHRAFF
100
AcDbCircle
 10
109.1952740699521
 20
191.9811323733529
 30
0.0
 40
5.0
100
AcDbArc
 50
323.130102354156
 51
36.86989764584402
  0
ARC
  5
380
330
1E
100
AcDbEntity
  8
SCHRAFF
100
AcDbCircle
 10
104.1952740699521
 20
191.9811323733529
 30
0.0
 40
5.0
100
AcDbArc
 50
323.130102354156
 51
36.86989764584402
  0
ARC
  5
381
102
{ACAD_REACTORS
330
389
102
}
330
1E
100
AcDbEntity
  8
SCHRAFF
100
AcDbCircle
 10
65.5736789356072
 20
191.9651391313775
 30
0.0
 40
3.286988942116733
100
AcDbArc
 50
113.4287783927107
 51
245.2063267050268
  0
ARC
  5
382
102
{ACAD_REACTORS
330
389
102
}
330
1E
100
AcDbEntity
  8
SCHRAFF
100
AcDbCircle
 10
115.8228928735651
 20
192.1041673061804
 30
0.0
 40
3.411272099944105
100
AcDbArc
 50
293.7225264416107
 51
57.49772930078353
  0
HATCH
  5
389
330
1E
100
AcDbEntity
  8
SCHRAFF
100
AcDbHatch
 10
0.0
 20
0.0
 30
0.0
210
0.0
220
0.0
230
1.0
  2
_USER
 70
     0
 71
     1
 91
        2
 92
        7
 72
     1
 73
     1
 93
        3
 10
117.1952740699521
 20
191.9811323733529
 42
0.0
 10
117.1952740699521
 20
188.981132373353
 42
0.5995264181340906
 10
117.6558820557826
 20
194.9811323733529
 42
0.0763208340542255
 97
        3
330
36B
330
36D
330
382
 92
        7
 72
     1
 73
     1
 93
        3
 10
64.19527406995212
 20
191.9811323733529
 42
-0.0119098287208429
 10
64.26674317974303
 20
194.9811323733529
 42
0.6480284900526544
 10
64.19527406995212
 20
188.981132373353
 42
0.0
 97
        3
330
381
330
36C
330
36A
 75
     0
 76
     0
 52
0.0
 41
0.1
 77
     0
 78
     1
 53
0.0
 43
6.69527406995212
 44
0.0
 45
0.0
 46
0.1
 79
     0
 47
0.0803104769963744
 98
        2
 10
117.4813582168928
 20
191.7509514034556
 10
63.72263181738492
 20
192.2328144065863
  0
DIMENSION
  5
3E6
330
1E
100
AcDbEntity
  8
BEM
100
AcDbDimension
  2
*D3
 10
46.54511008423526
 20
228.481132373353
 30
0.0
 11
43.29511008423522
 21
168.4811323733529
 31
0.0
 70
    32
  1
1000
 71
     5
 42
120.0000000000001
  3
Standard
100
AcDbAlignedDimension
 13
64.63271738758172
 23
108.4811323733529
 33
0.0
 14
127.1952740699521
 24
228.481132373353
 34
0.0
 50
90.0
100
AcDbRotatedDimension
1001
ACAD
1000
DSTYLE
1002
{
1070
    41
1040
3.5
1070
    42
1040
1.0
1070
    43
1040
7.0
1070
    44
1040
1.0
1070
    73
1070
     0
1070
    74
1070
     0
1070
    77
1070
     1
1070
    78
1070
     8
1070
    79
1070
     2
1070
   140
1040
3.5
1070
   141
1040
1.5
1070
   146
1040
0.5
1070
   147
1040
1.5
1070
   172
1070
     1
1070
   178
1070
     1
1070
   179
1070
     2
1070
   271
1070
     2
1070
   272
1070
     2
1070
   284
1070
     8
1070
   285
1070
     8
1070
   286
1070
     8
1002
}
  0
DIMENSION
  5
3F3
330
1E
100
AcDbEntity
  8
BEM
100
AcDbDimension
  2
*D4
 10
174.6952740699522
 20
272.6312963590698
 30
0.0
 11
132.6952740699522
 21
275.8812963590698
 31
0.0
 70
    32
 71
     5
 42
84.00000000000011
  3
Standard
100
AcDbAlignedDimension
 13
90.69527406995211
 23
191.9811323733529
 33
0.0
 14
174.6952740699522
 24
258.0874855232899
 34
0.0
100
AcDbRotatedDimension
1001
ACAD
1000
DSTYLE
1002
{
1070
    41
1040
3.5
1070
    42
1040
1.0
1070
    43
1040
7.0
1070
    44
1040
1.0
1070
    73
1070
     0
1070
    74
1070
     0
1070
    77
1070
     1
1070
    78
1070
     8
1070
    79
1070
     2
1070
   140
1040
3.5
1070
   141
1040
1.5
1070
   146
1040
0.5
1070
   147
1040
1.5
1070
   172
1070
     1
1070
   178
1070
     1
1070
   179
1070
     2
1070
   271
1070
     2
1070
   272
1070
     2
1070
   284
1070
     8
1070
   285
1070
     8
1070
   286
1070
     8
1002
}
  0
DIMENSION
  5
40A
330
1E
100
AcDbEntity
  8
BEM
100
AcDbDimension
  2
*D5
 10
127.1952740699521
 20
191.981132373353
 30
0.0
 11
110.0125757375983
 21
206.2476195302219
 31
0.0
 70
   164
 71
     5
 42
36.5
  3
Standard
100
AcDbRadialDimension
 15
99.11310291483658
 25
215.2972569058476
 35
0.0
 40
0.0
1001
ACAD
1000
DSTYLE
1002
{
1070
    41
1040
3.5
1070
    42
1040
1.0
1070
    43
1040
7.0
1070
    44
1040
1.0
1070
    73
1070
     0
1070
    74
1070
     0
1070
    77
1070
     1
1070
    78
1070
     8
1070
    79
1070
     2
1070
   140
1040
3.5
1070
   141
1040
1.5
1070
   146
1040
0.5
1070
   147
1040
1.5
1070
   172
1070
     1
1070
   178
1070
     1
1070
   179
1070
     2
1070
   271
1070
     2
1070
   272
1070
     2
1070
   284
1070
     8
1070
   285
1070
     8
1070
   286
1070
     8
1070
   288
1070
     1
1002
}
  0
DIMENSION
  5
43F
330
1E
100
AcDbEntity
  8
BEM
100
AcDbDimension
  2
*D6
 10
117.1952740699521
 20
95.4834416110042
 30
0.0
 11
90.69527406995211
 21
98.73344161100419
 31
0.0
 70
    32
  1
%%c<>
 71
     5
 42
53.0
  3
Standard
100
AcDbAlignedDimension
 13
64.19527406995212
 23
113.4811323733529
 33
0.0
 14
117.1952740699521
 24
113.4811323733529
 34
0.0
100
AcDbRotatedDimension
1001
ACAD
1000
DSTYLE
1002
{
1070
    41
1040
3.5
1070
    42
1040
1.0
1070
    43
1040
7.0
1070
    44
1040
1.0
1070
    73
1070
     0
1070
    74
1070
     0
1070
    77
1070
     1
1070
    78
1070
     8
1070
    79
1070
     2
1070
   140
1040
3.5
1070
   141
1040
1.5
1070
   146
1040
0.5
1070
   147
1040
1.5
1070
   172
1070
     1
1070
   178
1070
     1
1070
   179
1070
     2
1070
   271
1070
     2
1070
   272
1070
     2
1070
   284
1070
     8
1070
   285
1070
     8
1070
   286
1070
     8
1002
}
  0
DIMENSION
  5
4A8
330
1E
100
AcDbEntity
  8
SCHRAFF
100
AcDbDimension
  2
*D7
 10
90.69527406995211
 20
103.4811323733529
 30
0.0
 11
57.1782966862974
 21
261.9981097570077
 31
0.0
 70
    34
 71
     5
 42
1.570796326794896
  3
Standard
100
AcDb2LineAngularDimension
 13
179.6952740699521
 23
228.4811323733529
 33
0.0
 14
127.1952740699521
 24
228.481132373353
 34
0.0
 15
90.69527406995211
 25
191.9811323733529
 35
0.0
 16
68.62019207709375
 26
266.7162959662326
 36
0.0
1001
ACAD
1000
DSTYLE
1002
{
1070
    41
1040
3.5
1070
    42
1040
1.0
1070
    43
1040
7.0
1070
    44
1040
1.0
1070
    73
1070
     0
1070
    74
1070
     0
1070
    77
1070
     1
1070
    78
1070
     8
1070
    79
1070
     2
1070
   140
1040
3.5
1070
   141
1040
1.5
1070
   146
1040
0.5
1070
   147
1040
1.5
1070
   172
1070
     1
1070
   174
1070
     1
1070
   178
1070
     1
1070
   179
1070
     2
1070
   271
1070
     2
1070
   272
1070
     2
1070
   284
1070
     8
1070
   285
1070
     8
1070
   286
1070
     8
1002
}
  0
POLYLINE
  5
4CE
330
1E
100
AcDbEntity
  8
HILF
100
AcDb2dPolyline
 66
     1
 10
0.0
 20
0.0
 30
0.0
 70
     4
 75
     6
  0
VERTEX
  5
4CF
330
4CE
100
AcDbEntity
  8
HILF
100
AcDbVertex
100
AcDb2dVertex
 10
64.19527406995213
 20
155.8983851260515
 30
0.0
 70
    16
  0
VERTEX
  5
4D5
330
4CE
100
AcDbEntity
  8
HILF
100
AcDbVertex
100
AcDb2dVertex
 10
64.19527406995213
 20
155.8983851260515
 30
0.0
 70
     8
  0
VERTEX
  5
4D7
330
4CE
100
AcDbEntity
  8
HILF
100
AcDbVertex
100
AcDb2dVertex
 10
68.86641664807713
 20
157.4364710635515
 30
0.0
 70
     8
  0
VERTEX
  5
4D8
330
4CE
100
AcDbEntity
  8
HILF
100
AcDbVertex
100
AcDb2dVertex
 10
72.99410219495212
 20
158.3593226260515
 30
0.0
 70
     8
  0
VERTEX
  5
4D9
330
4CE
100
AcDbEntity
  8
HILF
100
AcDbVertex
100
AcDb2dVertex
 10
76.65596742932712
 20
158.7548304385515
 30
0.0
 70
     8
  0
VERTEX
  5
4DA
330
4CE
100
AcDbEntity
  8
HILF
100
AcDbVertex
100
AcDb2dVertex
 10
79.92964906995212
 20
158.7108851260515
 30
0.0
 70
     8
  0
VERTEX
  5
4DB
330
4CE
100
AcDbEntity
  8
HILF
100
AcDbVertex
100
AcDb2dVertex
 10
82.89278383557713
 20
158.3153773135515
 30
0.0
 70
     8
  0
VERTEX
  5
4DC
330
4CE
100
AcDbEntity
  8
HILF
100
AcDbVertex
100
AcDb2dVertex
 10
85.62300844495212
 20
157.6561976260515
 30
0.0
 70
     8
  0
VERTEX
  5
4DD
330
4CE
100
AcDbEntity
  8
HILF
100
AcDbVertex
100
AcDb2dVertex
 10
88.19795961682713
 20
156.8212366885515
 30
0.0
 70
     8
  0
VERTEX
  5
4DE
330
4CE
100
AcDbEntity
  8
HILF
100
AcDbVertex
100
AcDb2dVertex
 10
90.69527406995211
 20
155.8983851260515
 30
0.0
 70
     8
  0
VERTEX
  5
4DF
330
4CE
100
AcDbEntity
  8
HILF
100
AcDbVertex
100
AcDb2dVertex
 10
93.19258852307712
 20
154.9755335635515
 30
0.0
 70
     8
  0
VERTEX
  5
4E0
330
4CE
100
AcDbEntity
  8
HILF
100
AcDbVertex
100
AcDb2dVertex
 10
95.76753969495213
 20
154.1405726260515
 30
0.0
 70
     8
  0
VERTEX
  5
4E1
330
4CE
100
AcDbEntity
  8
HILF
100
AcDbVertex
100
AcDb2dVertex
 10
98.49776430432712
 20
153.4813929385515
 30
0.0
 70
     8
  0
VERTEX
  5
4E2
330
4CE
100
AcDbEntity
  8
HILF
100
AcDbVertex
100
AcDb2dVertex
 10
101.4608990699521
 20
153.0858851260515
 30
0.0
 70
     8
  0
VERTEX
  5
4E3
330
4CE
100
AcDbEntity
  8
HILF
100
AcDbVertex
100
AcDb2dVertex
 10
104.7345807105771
 20
153.0419398135515
 30
0.0
 70
     8
  0
VERTEX
  5
4E4
330
4CE
100
AcDbEntity
  8
HILF
100
AcDbVertex
100
AcDb2dVertex
 10
108.3964459449521
 20
153.4374476260515
 30
0.0
 70
     8
  0
VERTEX
  5
4E5
330
4CE
100
AcDbEntity
  8
HILF
100
AcDbVertex
100
AcDb2dVertex
 10
112.5241314918271
 20
154.3602991885514
 30
0.0
 70
     8
  0
VERTEX
  5
4E6
330
4CE
100
AcDbEntity
  8
HILF
100
AcDbVertex
100
AcDb2dVertex
 10
117.1952740699521
 20
155.8983851260514
 30
0.0
 70
     8
  0
VERTEX
  5
4D0
330
4CE
100
AcDbEntity
  8
HILF
100
AcDbVertex
100
AcDb2dVertex
 10
77.44527406995212
 20
160.8983851260515
 30
0.0
 70
    16
  0
VERTEX
  5
4D1
330
4CE
100
AcDbEntity
  8
HILF
100
AcDbVertex
100
AcDb2dVertex
 10
90.69527406995211
 20
155.8983851260515
 30
0.0
 70
    16
  0
VERTEX
  5
4D2
330
4CE
100
AcDbEntity
  8
HILF
100
AcDbVertex
100
AcDb2dVertex
 10
103.9452740699521
 20
150.8983851260515
 30
0.0
 70
    16
  0
VERTEX
  5
4D3
330
4CE
100
AcDbEntity
  8
HILF
100
AcDbVertex
100
AcDb2dVertex
 10
117.1952740699521
 20
155.8983851260515
 30
0.0
 70
    16
  0
SEQEND
  5
4D4
330
4CE
100
AcDbEntity
  8
HILF
  0
POLYLINE
  5
4E7
330
1E
100
AcDbEntity
  8
HILF
100
AcDb2dPolyline
 66
     1
 10
0.0
 20
0.0
 30
0.0
 70
     4
 75
     6
  0
VERTEX
  5
4E8
330
4E7
100
AcDbEntity
  8
HILF
100
AcDbVertex
100
AcDb2dVertex
 10
64.19527406995213
 20
160.8983851260515
 30
0.0
 70
    16
  0
VERTEX
  5
4E9
330
4E7
100
AcDbEntity
  8
HILF
100
AcDbVertex
100
AcDb2dVertex
 10
64.19527406995213
 20
160.8983851260515
 30
0.0
 70
     8
  0
VERTEX
  5
4EA
330
4E7
100
AcDbEntity
  8
HILF
100
AcDbVertex
100
AcDb2dVertex
 10
68.86641664807713
 20
162.4364710635515
 30
0.0
 70
     8
  0
VERTEX
  5
4EB
330
4E7
100
AcDbEntity
  8
HILF
100
AcDbVertex
100
AcDb2dVertex
 10
72.99410219495212
 20
163.3593226260515
 30
0.0
 70
     8
  0
VERTEX
  5
4EC
330
4E7
100
AcDbEntity
  8
HILF
100
AcDbVertex
100
AcDb2dVertex
 10
76.65596742932712
 20
163.7548304385515
 30
0.0
 70
     8
  0
VERTEX
  5
4ED
330
4E7
100
AcDbEntity
  8
HILF
100
AcDbVertex
100
AcDb2dVertex
 10
79.92964906995212
 20
163.7108851260515
 30
0.0
 70
     8
  0
VERTEX
  5
4EE
330
4E7
100
AcDbEntity
  8
HILF
100
AcDbVertex
100
AcDb2dVertex
 10
82.89278383557713
 20
163.3153773135515
 30
0.0
 70
     8
  0
VERTEX
  5
4EF
330
4E7
100
AcDbEntity
  8
HILF
100
AcDbVertex
100
AcDb2dVertex
 10
85.62300844495212
 20
162.6561976260515
 30
0.0
 70
     8
  0
VERTEX
  5
4F0
330
4E7
100
AcDbEntity
  8
HILF
100
AcDbVertex
100
AcDb2dVertex
 10
88.19795961682713
 20
161.8212366885515
 30
0.0
 70
     8
  0
VERTEX
  5
4F1
330
4E7
100
AcDbEntity
  8
HILF
100
AcDbVertex
100
AcDb2dVertex
 10
90.69527406995211
 20
160.8983851260515
 30
0.0
 70
     8
  0
VERTEX
  5
4F2
330
4E7
100
AcDbEntity
  8
HILF
100
AcDbVertex
100
AcDb2dVertex
 10
93.19258852307712
 20
159.9755335635515
 30
0.0
 70
     8
  0
VERTEX
  5
4F3
330
4E7
100
AcDbEntity
  8
HILF
100
AcDbVertex
100
AcDb2dVertex
 10
95.76753969495213
 20
159.1405726260515
 30
0.0
 70
     8
  0
VERTEX
  5
4F4
330
4E7
100
AcDbEntity
  8
HILF
100
AcDbVertex
100
AcDb2dVertex
 10
98.49776430432712
 20
158.4813929385515
 30
0.0
 70
     8
  0
VERTEX
  5
4F5
330
4E7
100
AcDbEntity
  8
HILF
100
AcDbVertex
100
AcDb2dVertex
 10
101.4608990699521
 20
158.0858851260515
 30
0.0
 70
     8
  0
VERTEX
  5
4F6
330
4E7
100
AcDbEntity
  8
HILF
100
AcDbVertex
100
AcDb2dVertex
 10
104.7345807105771
 20
158.0419398135515
 30
0.0
 70
     8
  0
VERTEX
  5
4F7
330
4E7
100
AcDbEntity
  8
HILF
100
AcDbVertex
100
AcDb2dVertex
 10
108.3964459449521
 20
158.4374476260515
 30
0.0
 70
     8
  0
VERTEX
  5
4F8
330
4E7
100
AcDbEntity
  8
HILF
100
AcDbVertex
100
AcDb2dVertex
 10
112.5241314918271
 20
159.3602991885514
 30
0.0
 70
     8
  0
VERTEX
  5
4F9
330
4E7
100
AcDbEntity
  8
HILF
100
AcDbVertex
100
AcDb2dVertex
 10
117.1952740699521
 20
160.8983851260514
 30
0.0
 70
     8
  0
VERTEX
  5
4FA
330
4E7
100
AcDbEntity
  8
HILF
100
AcDbVertex
100
AcDb2dVertex
 10
77.44527406995212
 20
165.8983851260515
 30
0.0
 70
    16
  0
VERTEX
  5
4FB
330
4E7
100
AcDbEntity
  8
HILF
100
AcDbVertex
100
AcDb2dVertex
 10
90.69527406995211
 20
160.8983851260515
 30
0.0
 70
    16
  0
VERTEX
  5
4FC
330
4E7
100
AcDbEntity
  8
HILF
100
AcDbVertex
100
AcDb2dVertex
 10
103.9452740699521
 20
155.8983851260515
 30
0.0
 70
    16
  0
VERTEX
  5
4FD
330
4E7
100
AcDbEntity
  8
HILF
100
AcDbVertex
100
AcDb2dVertex
 10
117.1952740699521
 20
160.8983851260515
 30
0.0
 70
    16
  0
SEQEND
  5
4FE
330
4E7
100
AcDbEntity
  8
HILF
  0
LINE
  5
4FF
330
1E
100
AcDbEntity
  8
STEMPEL
100
AcDbLine
 10
117.1952740699521
 20
155.8983851260514
 30
0.0
 11
117.1952740699521
 21
113.4811323733529
 31
0.0
  0
LINE
  5
500
330
1E
100
AcDbEntity
  8
STEMPEL
100
AcDbLine
 10
64.19527406995211
 20
155.8983851260515
 30
0.0
 11
64.19527406995212
 21
113.4811323733529
 31
0.0
  0
ENDSEC
  0
SECTION
  2
OBJECTS
  0
DICTIONARY
  5
C
330
0
100
AcDbDictionary
281
     1
  3
ACAD_COLOR
350
DF
  3
ACAD_GROUP
350
D
  3
ACAD_LAYOUT
350
19
  3
ACAD_MATERIAL
350
DE
  3
ACAD_MLINESTYLE
350
16
  3
ACAD_PLOTSETTINGS
350
18
  3
ACAD_PLOTSTYLENAME
350
E
  3
AcDbVariableDictionary
350
EA
  0
DICTIONARY
  5
A0
330
1E
100
AcDbDictionary
280
     1
281
     1
  3
ACAD_LAYOUTSELFREF
360
D4
  0
DICTIONARY
  5
A2
330
1A
100
AcDbDictionary
280
     1
281
     1
  3
ACAD_LAYOUTSELFREF
360
D3
  0
DICTIONARY
  5
DF
102
{ACAD_REACTORS
330
C
102
}
330
C
100
AcDbDictionary
281
     1
  0
DICTIONARY
  5
D
102
{ACAD_REACTORS
330
C
102
}
330
C
100
AcDbDictionary
281
     1
  0
DICTIONARY
  5
19
102
{ACAD_REACTORS
330
C
102
}
330
C
100
AcDbDictionary
281
     1
  3
Layout1
350
1D
  3
Model
350
21
  0
DICTIONARY
  5
DE
102
{ACAD_REACTORS
330
C
102
}
330
C
100
AcDbDictionary
281
     1
  0
DICTIONARY
  5
16
102
{ACAD_REACTORS
330
C
102
}
330
C
100
AcDbDictionary
281
     1
  3
Standard
350
17
  0
DICTIONARY
  5
18
102
{ACAD_REACTORS
330
C
102
}
330
C
100
AcDbDictionary
281
     1
  0
ACDBDICTIONARYWDFLT
  5
E
102
{ACAD_REACTORS
330
C
102
}
330
C
100
AcDbDictionary
281
     1
  3
Normal
350
F
100
AcDbDictionaryWithDefault
340
F
  0
DICTIONARY
  5
EA
102
{ACAD_REACTORS
330
C
102
}
330
C
100
AcDbDictionary
281
     1
  3
DIMASSOC
350
EB
  3
PROJECTNAME
350
EC
  0
XRECORD
  5
D4
102
{ACAD_REACTORS
330
A0
102
}
330
A0
100
AcDbXrecord
280
     1
340
1E
  0
XRECORD
  5
D3
102
{ACAD_REACTORS
330
A2
102
}
330
A2
100
AcDbXrecord
280
     1
340
1A
  0
LAYOUT
  5
1D
102
{ACAD_REACTORS
330
19
102
}
330
19
100
AcDbPlotSettings
  1

  2
\\NT_WORK01\HP LaserJet 5000 PCL 6
  4

  6

 40
0.0
 41
0.0
 42
0.0
 43
0.0
 44
0.0
 45
0.0
 46
0.0
 47
0.0
 48
0.0
 49
0.0
140
0.0
141
0.0
142
1.0
143
1.0
 70
   688
 72
     0
 73
     0
 74
     5
  7

 75
    16
147
1.0
 76
     0
 77
     2
 78
   300
148
0.0
149
0.0
100
AcDbLayout
  1
Layout1
 70
     0
 71
     1
 10
0.0
 20
0.0
 11
12.0
 21
9.0
 12
0.0
 22
0.0
 32
0.0
 14
1.000000000000000E+20
 24
1.000000000000000E+20
 34
1.000000000000000E+20
 15
-1.000000000000000E+20
 25
-1.000000000000000E+20
 35
-1.000000000000000E+20
146
0.0
 13
0.0
 23
0.0
 33
0.0
 16
1.0
 26
0.0
 36
0.0
 17
0.0
 27
1.0
 37
0.0
 76
     0
330
1A
  0
LAYOUT
  5
21
102
{ACAD_REACTORS
330
19
102
}
330
19
100
AcDbPlotSettings
  1

  2
none_device
  4
Letter_(8.50_x_11.00_Inches)
  6

 40
6.349999904632568
 41
6.349999904632568
 42
6.350006103515625
 43
6.350006103515625
 44
215.8999938964844
 45
279.3999938964844
 46
0.0
 47
0.0
 48
0.0
 49
0.0
140
0.0
141
0.0
142
1.0
143
1.0
 70
 11952
 72
     0
 73
     1
 74
     0
  7

 75
     0
147
1.0
 76
     0
 77
     2
 78
   300
148
1104.900000000001
149
0.0
100
AcDbLayout
  1
Model
 70
     1
 71
     0
 10
0.0
 20
0.0
 11
12.0
 21
9.0
 12
0.0
 22
0.0
 32
0.0
 14
0.0
 24
0.0
 34
0.0
 15
0.0
 25
0.0
 35
0.0
146
0.0
 13
0.0
 23
0.0
 33
0.0
 16
1.0
 26
0.0
 36
0.0
 17
0.0
 27
1.0
 37
0.0
 76
     0
330
1E
  0
MLINESTYLE
  5
17
102
{ACAD_REACTORS
330
16
102
}
330
16
100
AcDbMlineStyle
  2
STANDARD
 70
     0
  3

 62
   256
 51
90.0
 52
90.0
 71
     2
 49
0.5
 62
   256
  6
BYLAYER
 49
-0.5
 62
   256
  6
BYLAYER
  0
ACDBPLACEHOLDER
  5
F
102
{ACAD_REACTORS
330
E
102
}
330
E
  0
DICTIONARYVAR
  5
EB
102
{ACAD_REACTORS
330
EA
102
}
330
EA
100
DictionaryVariables
280
     0
  1
1
  0
DICTIONARYVAR
  5
EC
102
{ACAD_REACTORS
330
EA
102
}
330
EA
100
DictionaryVariables
280
     0
  1

  0
ENDSEC
  0
EOF
