  0
SECTION
  2
HEADER
  9
$ACADVER
  1
AC1018
  9
$ACADMAINTVER
 70
     2
  9
$DWGCODEPAGE
  3
ANSI_1252
  9
$INSBASE
 10
0.0
 20
0.0
 30
0.0
  9
$EXTMIN
 10
-0.0240098358841578
 20
-0.0316885822660424
 30
-0.0000000000000053
  9
$EXTMAX
 10
420.0018903225934
 20
594.0408043772801
 30
0.0000000000000099
  9
$LIMMIN
 10
0.0
 20
0.0
  9
$LIMMAX
 10
419.9999999999999
 20
594.0000000000002
  9
$ORTHOMODE
 70
     1
  9
$REGENMODE
 70
     1
  9
$FILLMODE
 70
     1
  9
$QTEXTMODE
 70
     0
  9
$MIRRTEXT
 70
     1
  9
$LTSCALE
 40
20.0
  9
$ATTMODE
 70
     1
  9
$TEXTSIZE
 40
3.5
  9
$TRACEWID
 40
0.5
  9
$TEXTSTYLE
  7
STANDARD
  9
$CLAYER
  8
SCHRAFF
  9
$CELTYPE
  6
ByLayer
  9
$CECOLOR
 62
   256
  9
$CELTSCALE
 40
1.0
  9
$DISPSILH
 70
     0
  9
$DIMSCALE
 40
2.0
  9
$DIMASZ
 40
3.5
  9
$DIMEXO
 40
1.0
  9
$DIMDLI
 40
7.0
  9
$DIMRND
 40
0.0
  9
$DIMDLE
 40
0.0
  9
$DIMEXE
 40
1.0
  9
$DIMTP
 40
0.0
  9
$DIMTM
 40
0.0
  9
$DIMTXT
 40
3.5
  9
$DIMCEN
 40
1.5
  9
$DIMTSZ
 40
0.0
  9
$DIMTOL
 70
     0
  9
$DIMLIM
 70
     0
  9
$DIMTIH
 70
     0
  9
$DIMTOH
 70
     0
  9
$DIMSE1
 70
     0
  9
$DIMSE2
 70
     0
  9
$DIMTAD
 70
     1
  9
$DIMZIN
 70
     8
  9
$DIMBLK
  1

  9
$DIMASO
 70
     1
  9
$DIMSHO
 70
     0
  9
$DIMPOST
  1

  9
$DIMAPOST
  1

  9
$DIMALT
 70
     0
  9
$DIMALTD
 70
     2
  9
$DIMALTF
 40
25.4
  9
$DIMLFAC
 40
1.0
  9
$DIMTOFL
 70
     1
  9
$DIMTVP
 40
0.0
  9
$DIMTIX
 70
     0
  9
$DIMSOXD
 70
     0
  9
$DIMSAH
 70
     0
  9
$DIMBLK1
  1

  9
$DIMBLK2
  1

  9
$DIMSTYLE
  2
Standard
  9
$DIMCLRD
 70
     0
  9
$DIMCLRE
 70
     0
  9
$DIMCLRT
 70
     1
  9
$DIMTFAC
 40
0.5142857142857144
  9
$DIMGAP
 40
1.5
  9
$DIMJUST
 70
     0
  9
$DIMSD1
 70
     0
  9
$DIMSD2
 70
     0
  9
$DIMTOLJ
 70
     1
  9
$DIMTZIN
 70
     8
  9
$DIMALTZ
 70
     8
  9
$DIMALTTZ
 70
     8
  9
$DIMUPT
 70
     0
  9
$DIMDEC
 70
     2
  9
$DIMTDEC
 70
     2
  9
$DIMALTU
 70
     2
  9
$DIMALTTD
 70
     2
  9
$DIMTXSTY
  7
STANDARD
  9
$DIMAUNIT
 70
     0
  9
$DIMADEC
 70
     2
  9
$DIMALTRND
 40
0.0
  9
$DIMAZIN
 70
     2
  9
$DIMDSEP
 70
    46
  9
$DIMATFIT
 70
     3
  9
$DIMFRAC
 70
     0
  9
$DIMLDRBLK
  1

  9
$DIMLUNIT
 70
     2
  9
$DIMLWD
 70
    -2
  9
$DIMLWE
 70
    -2
  9
$DIMTMOVE
 70
     0
  9
$LUNITS
 70
     2
  9
$LUPREC
 70
     2
  9
$SKETCHINC
 40
1.0
  9
$FILLETRAD
 40
3.0
  9
$AUNITS
 70
     0
  9
$AUPREC
 70
     0
  9
$MENU
  1
ACAD
  9
$ELEVATION
 40
0.0
  9
$PELEVATION
 40
0.0
  9
$THICKNESS
 40
0.0
  9
$LIMCHECK
 70
     0
  9
$CHAMFERA
 40
0.0
  9
$CHAMFERB
 40
0.0
  9
$CHAMFERC
 40
0.0
  9
$CHAMFERD
 40
0.0
  9
$SKPOLY
 70
     0
  9
$TDCREATE
 40
2455397.823042361
  9
$TDUCREATE
 40
2455397.781375695
  9
$TDUPDATE
 40
2455978.372338554
  9
$TDUUPDATE
 40
2455978.330671886
  9
$TDINDWG
 40
0.2019976389
  9
$TDUSRTIMER
 40
0.2019976389
  9
$USRTIMER
 70
     1
  9
$ANGBASE
 50
0.0
  9
$ANGDIR
 70
     0
  9
$PDMODE
 70
     0
  9
$PDSIZE
 40
0.0
  9
$PLINEWID
 40
0.0
  9
$SPLFRAME
 70
     0
  9
$SPLINETYPE
 70
     6
  9
$SPLINESEGS
 70
     8
  9
$HANDSEED
  5
1203
  9
$SURFTAB1
 70
     6
  9
$SURFTAB2
 70
     6
  9
$SURFTYPE
 70
     6
  9
$SURFU
 70
     6
  9
$SURFV
 70
     6
  9
$UCSBASE
  2

  9
$UCSNAME
  2

  9
$UCSORG
 10
0.0
 20
0.0
 30
0.0
  9
$UCSXDIR
 10
1.0
 20
0.0
 30
0.0
  9
$UCSYDIR
 10
0.0
 20
1.0
 30
0.0
  9
$UCSORTHOREF
  2

  9
$UCSORTHOVIEW
 70
     0
  9
$UCSORGTOP
 10
0.0
 20
0.0
 30
0.0
  9
$UCSORGBOTTOM
 10
0.0
 20
0.0
 30
0.0
  9
$UCSORGLEFT
 10
0.0
 20
0.0
 30
0.0
  9
$UCSORGRIGHT
 10
0.0
 20
0.0
 30
0.0
  9
$UCSORGFRONT
 10
0.0
 20
0.0
 30
0.0
  9
$UCSORGBACK
 10
0.0
 20
0.0
 30
0.0
  9
$PUCSBASE
  2

  9
$PUCSNAME
  2

  9
$PUCSORG
 10
0.0
 20
0.0
 30
0.0
  9
$PUCSXDIR
 10
1.0
 20
0.0
 30
0.0
  9
$PUCSYDIR
 10
0.0
 20
1.0
 30
0.0
  9
$PUCSORTHOREF
  2

  9
$PUCSORTHOVIEW
 70
     0
  9
$PUCSORGTOP
 10
0.0
 20
0.0
 30
0.0
  9
$PUCSORGBOTTOM
 10
0.0
 20
0.0
 30
0.0
  9
$PUCSORGLEFT
 10
0.0
 20
0.0
 30
0.0
  9
$PUCSORGRIGHT
 10
0.0
 20
0.0
 30
0.0
  9
$PUCSORGFRONT
 10
0.0
 20
0.0
 30
0.0
  9
$PUCSORGBACK
 10
0.0
 20
0.0
 30
0.0
  9
$USERI1
 70
     0
  9
$USERI2
 70
     0
  9
$USERI3
 70
     0
  9
$USERI4
 70
     0
  9
$USERI5
 70
     0
  9
$USERR1
 40
0.0
  9
$USERR2
 40
0.0
  9
$USERR3
 40
0.0
  9
$USERR4
 40
0.0
  9
$USERR5
 40
0.0
  9
$WORLDVIEW
 70
     1
  9
$SHADEDGE
 70
     3
  9
$SHADEDIF
 70
    70
  9
$TILEMODE
 70
     1
  9
$MAXACTVP
 70
    16
  9
$PINSBASE
 10
0.0
 20
0.0
 30
0.0
  9
$PLIMCHECK
 70
     0
  9
$PEXTMIN
 10
1.000000000000000E+20
 20
1.000000000000000E+20
 30
1.000000000000000E+20
  9
$PEXTMAX
 10
-1.000000000000000E+20
 20
-1.000000000000000E+20
 30
-1.000000000000000E+20
  9
$PLIMMIN
 10
0.0
 20
0.0
  9
$PLIMMAX
 10
12.0
 20
9.0
  9
$UNITMODE
 70
     0
  9
$VISRETAIN
 70
     0
  9
$PLINEGEN
 70
     0
  9
$PSLTSCALE
 70
     0
  9
$TREEDEPTH
 70
  3020
  9
$CMLSTYLE
  2
Standard
  9
$CMLJUST
 70
     0
  9
$CMLSCALE
 40
1.0
  9
$PROXYGRAPHICS
 70
     1
  9
$MEASUREMENT
 70
     0
  9
$CELWEIGHT
370
    -1
  9
$ENDCAPS
280
     0
  9
$JOINSTYLE
280
     0
  9
$LWDISPLAY
290
     0
  9
$INSUNITS
 70
     0
  9
$HYPERLINKBASE
  1

  9
$STYLESHEET
  1
monochrome.ctb
  9
$XEDIT
290
     1
  9
$CEPSNTYPE
380
     0
  9
$PSTYLEMODE
290
     1
  9
$FINGERPRINTGUID
  2
{D68B0D02-A558-11D7-B632-000102183313}
  9
$VERSIONGUID
  2
{E0D9E685-4F6A-4F56-A86E-D70DF3A0C514}
  9
$EXTNAMES
290
     1
  9
$PSVPSCALE
 40
0.0
  9
$OLESTARTUP
290
     0
  9
$SORTENTS
280
   127
  9
$INDEXCTL
280
     0
  9
$HIDETEXT
280
     0
  9
$XCLIPFRAME
290
     0
  9
$HALOGAP
280
     0
  9
$OBSCOLOR
 70
   257
  9
$OBSLTYPE
280
     0
  9
$INTERSECTIONDISPLAY
280
     0
  9
$INTERSECTIONCOLOR
 70
   257
  9
$DIMASSOC
280
     1
  9
$PROJECTNAME
  1

  0
ENDSEC
  0
SECTION
  2
CLASSES
  0
CLASS
  1
ACDBDICTIONARYWDFLT
  2
AcDbDictionaryWithDefault
  3
ObjectDBX Classes
 90
        0
 91
        1
280
     0
281
     0
  0
CLASS
  1
DICTIONARYVAR
  2
AcDbDictionaryVar
  3
ObjectDBX Classes
 90
        0
 91
        2
280
     0
281
     0
  0
ENDSEC
  0
SECTION
  2
TABLES
  0
TABLE
  2
VPORT
  5
8
330
0
100
AcDbSymbolTable
 70
     3
  0
VPORT
  5
1202
330
8
100
AcDbSymbolTableRecord
100
AcDbViewportTableRecord
  2
*Active
 70
     0
 10
0.0
 20
0.0
 11
1.0
 21
1.0
 12
210.0
 22
297.0
 13
0.0
 23
0.0
 14
1.0
 24
1.0
 15
10.0
 25
10.0
 16
0.0
 26
0.0
 36
1.0
 17
0.0
 27
0.0
 37
0.0
 40
594.0
 41
1.374331550802138
 42
50.0
 43
0.0
 44
0.0
 50
0.0
 51
0.0
 71
     0
 72
  1500
 73
     1
 74
     0
 75
     0
 76
     0
 77
     0
 78
     0
281
     0
 65
     1
110
0.0
120
0.0
130
0.0
111
1.0
121
0.0
131
0.0
112
0.0
122
1.0
132
0.0
 79
     0
146
0.0
  0
ENDTAB
  0
TABLE
  2
LTYPE
  5
5
330
0
100
AcDbSymbolTable
 70
     2
  0
LTYPE
  5
13
330
5
100
AcDbSymbolTableRecord
100
AcDbLinetypeTableRecord
  2
ByBlock
 70
     0
  3

 72
    65
 73
     0
 40
0.0
  0
LTYPE
  5
14
330
5
100
AcDbSymbolTableRecord
100
AcDbLinetypeTableRecord
  2
ByLayer
 70
     0
  3

 72
    65
 73
     0
 40
0.0
  0
LTYPE
  5
15
330
5
100
AcDbSymbolTableRecord
100
AcDbLinetypeTableRecord
  2
Continuous
 70
     0
  3
Solid line
 72
    65
 73
     0
 40
0.0
  0
LTYPE
  5
25
330
5
100
AcDbSymbolTableRecord
100
AcDbLinetypeTableRecord
  2
STRICHPUNKT
 70
     0
  3
__ . __ . __ . __ . __ . __ . __ . __ . __ . __
 72
    65
 73
     4
 40
1.0
 49
0.5
 74
     0
 49
-0.25
 74
     0
 49
0.0
 74
     0
 49
-0.25
 74
     0
  0
ENDTAB
  0
TABLE
  2
LAYER
  5
2
330
0
100
AcDbSymbolTable
 70
     9
  0
LAYER
  5
10
330
2
100
AcDbSymbolTableRecord
100
AcDbLayerTableRecord
  2
0
 70
     0
 62
     7
  6
Continuous
370
    -3
390
F
  0
LAYER
  5
2A
330
2
100
AcDbSymbolTableRecord
100
AcDbLayerTableRecord
  2
VOLL
 70
     0
 62
     1
  6
Continuous
370
    -3
390
F
  0
LAYER
  5
2B
330
2
100
AcDbSymbolTableRecord
100
AcDbLayerTableRecord
  2
HILF
 70
     0
 62
     2
  6
Continuous
370
    -3
390
F
  0
LAYER
  5
2C
330
2
100
AcDbSymbolTableRecord
100
AcDbLayerTableRecord
  2
MITTEL
 70
     0
 62
     2
  6
STRICHPUNKT
370
    -3
390
F
  0
LAYER
  5
2F
330
2
100
AcDbSymbolTableRecord
100
AcDbLayerTableRecord
  2
BEM
 70
     0
 62
     7
  6
Continuous
370
    -3
390
F
  0
LAYER
  5
30
330
2
100
AcDbSymbolTableRecord
100
AcDbLayerTableRecord
  2
STEMPEL
 70
     0
 62
     3
  6
Continuous
370
    -3
390
F
  0
LAYER
  5
31
330
2
100
AcDbSymbolTableRecord
100
AcDbLayerTableRecord
  2
TEXT
 70
     0
 62
     7
  6
Continuous
370
    -3
390
F
  0
LAYER
  5
14D
330
2
100
AcDbSymbolTableRecord
100
AcDbLayerTableRecord
  2
Defpoints
 70
     0
 62
     7
  6
Continuous
290
     0
370
    -3
390
F
  0
LAYER
  5
1FE
330
2
100
AcDbSymbolTableRecord
100
AcDbLayerTableRecord
  2
SCHRAFF
 70
     0
 62
     7
  6
Continuous
370
    -3
390
F
  0
ENDTAB
  0
TABLE
  2
STYLE
  5
3
330
0
100
AcDbSymbolTable
 70
     2
  0
STYLE
  5
11
330
3
100
AcDbSymbolTableRecord
100
AcDbTextStyleTableRecord
  2
STANDARD
 70
     0
 40
0.0
 41
0.8
 50
0.0
 71
     0
 42
3.5
  3
simplex.shx
  4

  0
STYLE
  5
24
330
3
100
AcDbSymbolTableRecord
100
AcDbTextStyleTableRecord
  2
GREEKS
 70
     0
 40
0.0
 41
0.8
 50
0.0
 71
     0
 42
2.5
  3
SIMPLEX.shx
  4

  0
ENDTAB
  0
TABLE
  2
VIEW
  5
6
330
0
100
AcDbSymbolTable
 70
     0
  0
ENDTAB
  0
TABLE
  2
UCS
  5
7
330
0
100
AcDbSymbolTable
 70
     0
  0
ENDTAB
  0
TABLE
  2
APPID
  5
9
330
0
100
AcDbSymbolTable
 70
     1
  0
APPID
  5
12
330
9
100
AcDbSymbolTableRecord
100
AcDbRegAppTableRecord
  2
ACAD
 70
     0
  0
ENDTAB
  0
TABLE
  2
DIMSTYLE
  5
A
330
0
100
AcDbSymbolTable
 70
     1
100
AcDbDimStyleTable
 71
     1
340
9D
  0
DIMSTYLE
105
9D
102
{ACAD_REACTORS
330
BE9
330
D42
330
F05
330
F13
330
F9F
102
}
330
A
100
AcDbSymbolTableRecord
100
AcDbDimStyleTableRecord
  2
Standard
 70
     0
340
11
  0
ENDTAB
  0
TABLE
  2
BLOCK_RECORD
  5
1
330
0
100
AcDbSymbolTable
 70
     8
  0
BLOCK_RECORD
  5
1E
102
{ACAD_XDICTIONARY
360
A0
102
}
330
1
100
AcDbSymbolTableRecord
100
AcDbBlockTableRecord
  2
*Model_Space
340
21
  0
BLOCK_RECORD
  5
1A
102
{ACAD_XDICTIONARY
360
A2
102
}
330
1
100
AcDbSymbolTableRecord
100
AcDbBlockTableRecord
  2
*Paper_Space
340
1D
  0
BLOCK_RECORD
  5
22
330
1
100
AcDbSymbolTableRecord
100
AcDbBlockTableRecord
  2
LOGO
340
0
102
{BLKREFS
331
9B
102
}
  0
BLOCK_RECORD
  5
BF9
330
1
100
AcDbSymbolTableRecord
100
AcDbBlockTableRecord
  2
*D2
340
0
  0
BLOCK_RECORD
  5
D43
330
1
100
AcDbSymbolTableRecord
100
AcDbBlockTableRecord
  2
*D3
340
0
  0
BLOCK_RECORD
  5
F06
330
1
100
AcDbSymbolTableRecord
100
AcDbBlockTableRecord
  2
*D4
340
0
  0
BLOCK_RECORD
  5
F14
330
1
100
AcDbSymbolTableRecord
100
AcDbBlockTableRecord
  2
*D5
340
0
  0
BLOCK_RECORD
  5
FA0
330
1
100
AcDbSymbolTableRecord
100
AcDbBlockTableRecord
  2
*D6
340
0
  0
ENDTAB
  0
ENDSEC
  0
SECTION
  2
BLOCKS
  0
BLOCK
  5
35
330
1E
100
AcDbEntity
  8
0
100
AcDbBlockBegin
  2
*Model_Space
 70
     0
 10
0.0
 20
0.0
 30
0.0
  3
*Model_Space
  1

  0
ENDBLK
  5
36
330
1E
100
AcDbEntity
  8
0
100
AcDbBlockEnd
  0
BLOCK
  5
33
330
1A
100
AcDbEntity
 67
     1
  8
0
100
AcDbBlockBegin
  2
*Paper_Space
 70
     0
 10
0.0
 20
0.0
 30
0.0
  3
*Paper_Space
  1

  0
ENDBLK
  5
34
330
1A
100
AcDbEntity
 67
     1
  8
0
100
AcDbBlockEnd
  0
BLOCK
  5
37
330
22
100
AcDbEntity
  8
0
100
AcDbBlockBegin
  2
LOGO
 70
     0
 10
0.0
 20
0.0
 30
0.0
  3
LOGO
  1

  0
ARC
  5
38
330
22
100
AcDbEntity
  8
0
100
AcDbCircle
 10
11.59973089678112
 20
-9.271599258481501
 30
0.0
 40
4.5
100
AcDbArc
 50
270.0
 51
231.0575587310159
  0
LINE
  5
39
330
22
100
AcDbEntity
  8
0
100
AcDbLine
 10
3.599730896781125
 20
-4.771599258481529
 30
0.0
 11
3.599730896781153
 21
-11.77159925848133
 31
0.0
  0
LINE
  5
3A
330
22
100
AcDbEntity
  8
0
100
AcDbLine
 10
2.599730896781125
 20
-4.771599258481529
 30
0.0
 11
2.599730896781153
 21
-11.77159925848133
 31
0.0
  0
CIRCLE
  5
3B
330
22
100
AcDbEntity
  8
0
100
AcDbCircle
 10
11.59973089678112
 20
-9.271599258481501
 30
0.0
 40
3.5
  0
ARC
  5
3C
330
22
100
AcDbEntity
  8
0
100
AcDbCircle
 10
31.59973089678115
 20
-9.271599258481472
 30
0.0
 40
4.5
100
AcDbArc
 50
270.0
 51
231.0575587310182
  0
LINE
  5
3D
330
22
100
AcDbEntity
  8
0
100
AcDbLine
 10
17.59973089678112
 20
-4.771599258481472
 30
0.0
 11
17.59973089678115
 21
-13.77159925848147
 31
0.0
  0
ARC
  5
3E
330
22
100
AcDbEntity
  8
0
100
AcDbCircle
 10
22.59973089678116
 20
-7.271599258481472
 30
0.0
 40
2.5
100
AcDbArc
 50
293.1161887722295
 51
90.0
  0
CIRCLE
  5
3F
330
22
100
AcDbEntity
  8
0
100
AcDbCircle
 10
31.59973089678115
 20
-9.271599258481472
 30
0.0
 40
3.5
  0
ARC
  5
40
330
22
100
AcDbEntity
  8
0
100
AcDbCircle
 10
4.599730896781153
 20
-11.77159925848133
 30
0.0
 40
1.0
100
AcDbArc
 50
180.0
 51
270.0
  0
ARC
  5
41
330
22
100
AcDbEntity
  8
0
100
AcDbCircle
 10
4.599730896781153
 20
-11.77159925848133
 30
0.0
 40
2.0
100
AcDbArc
 50
179.9999999999992
 51
270.0
  0
LINE
  5
42
330
22
100
AcDbEntity
  8
0
100
AcDbLine
 10
11.59973089678115
 20
-13.77159925848144
 30
0.0
 11
4.599730896781153
 21
-13.77159925848147
 31
0.0
  0
LINE
  5
43
330
22
100
AcDbEntity
  8
0
100
AcDbLine
 10
8.771303772034769
 20
-12.77159925848136
 30
0.0
 11
4.599730896781153
 21
-12.77159925848133
 31
0.0
  0
LINE
  5
44
330
22
100
AcDbEntity
  8
0
100
AcDbLine
 10
31.59973089678115
 20
-13.77159925848147
 30
0.0
 11
23.6715276665056
 21
-13.77159925848144
 31
0.0
  0
LINE
  5
45
330
22
100
AcDbEntity
  8
0
100
AcDbLine
 10
23.56565672307022
 20
-9.51278021337896
 30
0.0
 11
24.4388546544846
 21
-12.77159925848144
 31
0.0
  0
LINE
  5
46
330
22
100
AcDbEntity
  8
0
100
AcDbLine
 10
22.59973089678116
 20
-9.771599258481472
 30
0.0
 11
18.59973089678112
 21
-9.771599258481472
 31
0.0
  0
LINE
  5
47
330
22
100
AcDbEntity
  8
0
100
AcDbLine
 10
18.59973089678115
 20
-13.77159925848144
 30
0.0
 11
17.59973089678115
 21
-13.77159925848144
 31
0.0
  0
LINE
  5
48
330
22
100
AcDbEntity
  8
0
100
AcDbLine
 10
18.59973089678115
 20
-9.771599258481472
 30
0.0
 11
18.59973089678115
 21
-13.77159925848144
 31
0.0
  0
LINE
  5
49
330
22
100
AcDbEntity
  8
0
100
AcDbLine
 10
22.59973089678116
 20
-9.771599258481472
 30
0.0
 11
23.67152766650562
 21
-13.77159925848147
 31
0.0
  0
ARC
  5
4A
330
22
100
AcDbEntity
  8
0
100
AcDbCircle
 10
22.59973089678116
 20
-7.271599258481472
 30
0.0
 40
2.5
100
AcDbArc
 50
270.0
 51
270.0000000000007
  0
LINE
  5
4B
330
22
100
AcDbEntity
  8
0
100
AcDbLine
 10
28.77130377203494
 20
-12.77159925848147
 30
0.0
 11
24.43885465448463
 21
-12.77159925848144
 31
0.0
  0
LINE
  5
4C
330
22
100
AcDbEntity
  8
0
100
AcDbLine
 10
3.599730896781125
 20
-4.771599258481472
 30
0.0
 11
2.599730896781125
 21
-4.771599258481472
 31
0.0
  0
LINE
  5
4D
330
22
100
AcDbEntity
  8
0
100
AcDbLine
 10
22.59973089678116
 20
-8.771599258481472
 30
0.0
 11
18.59973089678115
 21
-8.771599258481472
 31
0.0
  0
LINE
  5
4E
330
22
100
AcDbEntity
  8
0
100
AcDbLine
 10
22.59973089678116
 20
-5.771599258481472
 30
0.0
 11
18.59973089678115
 21
-5.771599258481472
 31
0.0
  0
LINE
  5
4F
330
22
100
AcDbEntity
  8
0
100
AcDbLine
 10
22.59973089678116
 20
-4.771599258481472
 30
0.0
 11
17.59973089678115
 21
-4.771599258481472
 31
0.0
  0
LINE
  5
50
330
22
100
AcDbEntity
  8
0
100
AcDbLine
 10
18.59973089678115
 20
-5.771599258481472
 30
0.0
 11
18.59973089678115
 21
-8.771599258481472
 31
0.0
  0
ARC
  5
51
330
22
100
AcDbEntity
  8
0
100
AcDbCircle
 10
22.59973089678116
 20
-7.271599258481472
 30
0.0
 40
1.5
100
AcDbArc
 50
270.0
 51
90.0
  0
ENDBLK
  5
52
330
22
100
AcDbEntity
  8
0
100
AcDbBlockEnd
  0
BLOCK
  5
C03
330
BF9
100
AcDbEntity
  8
0
100
AcDbBlockBegin
  2
*D2
 70
     1
 10
0.0
 20
0.0
 30
0.0
  3
*D2
  1

  0
LINE
  5
F5A
330
BF9
100
AcDbEntity
  8
BEM
 62
     0
370
    -2
100
AcDbLine
 10
140.3478666490382
 20
218.420467995308
 30
0.0
 11
140.3478666490382
 21
191.3751276181365
 31
0.0
  0
LINE
  5
F5B
330
BF9
100
AcDbEntity
  8
BEM
 62
     0
370
    -2
100
AcDbLine
 10
229.3478666490382
 20
218.4204679953084
 30
0.0
 11
229.3478666490382
 21
191.3751276181365
 31
0.0
  0
LINE
  5
F5C
330
BF9
100
AcDbEntity
  8
BEM
 62
     0
370
    -2
100
AcDbLine
 10
147.3478666490382
 20
193.3751276181365
 30
0.0
 11
222.3478666490382
 21
193.3751276181365
 31
0.0
  0
SOLID
  5
F5D
330
BF9
100
AcDbEntity
  8
BEM
 62
     0
100
AcDbTrace
 10
147.3478666490382
 20
194.5417942848031
 30
0.0
 11
147.3478666490382
 21
192.2084609514698
 31
0.0
 12
140.3478666490382
 22
193.3751276181365
 32
0.0
 13
140.3478666490382
 23
193.3751276181365
 33
0.0
  0
SOLID
  5
F5E
330
BF9
100
AcDbEntity
  8
BEM
 62
     0
100
AcDbTrace
 10
222.3478666490382
 20
194.5417942848031
 30
0.0
 11
222.3478666490382
 21
192.2084609514698
 31
0.0
 12
229.3478666490382
 22
193.3751276181365
 32
0.0
 13
229.3478666490382
 23
193.3751276181365
 33
0.0
  0
MTEXT
  5
F5F
330
BF9
100
AcDbEntity
  8
BEM
 62
     1
100
AcDbMText
 10
184.8478666490382
 20
199.8751276181365
 30
0.0
 40
7.0
 41
0.0
 71
     5
 72
     1
  1
\A1;%%C89
 73
     1
 44
1.0
  0
POINT
  5
F60
330
BF9
100
AcDbEntity
  8
Defpoints
 62
     0
100
AcDbPoint
 10
140.3478666490382
 20
220.420467995308
 30
0.0
  0
POINT
  5
F61
330
BF9
100
AcDbEntity
  8
Defpoints
 62
     0
100
AcDbPoint
 10
229.3478666490382
 20
220.4204679953084
 30
0.0
  0
POINT
  5
F62
330
BF9
100
AcDbEntity
  8
Defpoints
 62
     0
100
AcDbPoint
 10
229.3478666490382
 20
193.3751276181365
 30
0.0
  0
ENDBLK
  5
C04
330
BF9
100
AcDbEntity
  8
0
100
AcDbBlockEnd
  0
BLOCK
  5
D4D
330
D43
100
AcDbEntity
  8
0
100
AcDbBlockBegin
  2
*D3
 70
     1
 10
0.0
 20
0.0
 30
0.0
  3
*D3
  1

  0
LINE
  5
118B
330
D43
100
AcDbEntity
  8
BEM
 62
     0
370
    -2
100
AcDbLine
 10
182.8478666490382
 20
310.4903255039622
 30
0.0
 11
121.313370075382
 21
310.4903255039623
 31
0.0
  0
LINE
  5
118C
330
D43
100
AcDbEntity
  8
BEM
 62
     0
370
    -2
100
AcDbLine
 10
138.9541755536502
 20
213.4903255039623
 30
0.0
 11
121.3133700753819
 21
213.4903255039623
 31
0.0
  0
LINE
  5
118D
330
D43
100
AcDbEntity
  8
BEM
 62
     0
370
    -2
100
AcDbLine
 10
123.313370075382
 20
303.4903255039623
 30
0.0
 11
123.3133700753819
 21
220.4903255039623
 31
0.0
  0
SOLID
  5
118E
330
D43
100
AcDbEntity
  8
BEM
 62
     0
100
AcDbTrace
 10
122.1467034087153
 20
303.4903255039623
 30
0.0
 11
124.4800367420486
 21
303.4903255039623
 31
0.0
 12
123.313370075382
 22
310.4903255039623
 32
0.0
 13
123.313370075382
 23
310.4903255039623
 33
0.0
  0
SOLID
  5
118F
330
D43
100
AcDbEntity
  8
BEM
 62
     0
100
AcDbTrace
 10
122.1467034087153
 20
220.4903255039623
 30
0.0
 11
124.4800367420486
 21
220.4903255039623
 31
0.0
 12
123.3133700753819
 22
213.4903255039623
 32
0.0
 13
123.3133700753819
 23
213.4903255039623
 33
0.0
  0
MTEXT
  5
1190
330
D43
100
AcDbEntity
  8
BEM
 62
     1
100
AcDbMText
 10
116.8133700753819
 20
261.9903255039623
 30
0.0
 40
7.0
 41
0.0
 71
     5
 72
     1
  1
\A1;97
 11
0.0000000000000001
 21
1.0
 31
0.0
 73
     1
 44
1.0
  0
POINT
  5
1191
330
D43
100
AcDbEntity
  8
Defpoints
 62
     0
100
AcDbPoint
 10
184.8478666490382
 20
310.4903255039622
 30
0.0
  0
POINT
  5
1192
330
D43
100
AcDbEntity
  8
Defpoints
 62
     0
100
AcDbPoint
 10
140.9541755536502
 20
213.4903255039623
 30
0.0
  0
POINT
  5
1193
330
D43
100
AcDbEntity
  8
Defpoints
 62
     0
100
AcDbPoint
 10
123.3133700753819
 20
213.4903255039623
 30
0.0
  0
ENDBLK
  5
D4E
330
D43
100
AcDbEntity
  8
0
100
AcDbBlockEnd
  0
BLOCK
  5
F10
330
F06
100
AcDbEntity
  8
0
100
AcDbBlockBegin
  2
*D4
 70
     1
 10
0.0
 20
0.0
 30
0.0
  3
*D4
  1

  0
LINE
  5
10C0
330
F06
100
AcDbEntity
  8
BEM
 62
     0
370
    -2
100
AcDbLine
 10
186.2620802114112
 20
309.0761119415891
 30
0.0
 11
245.005719143267
 21
250.3324730097311
 31
0.0
  0
LINE
  5
10C1
330
F06
100
AcDbEntity
  8
BEM
 62
     0
370
    -2
100
AcDbLine
 10
360.356546838348
 20
414.9959306645239
 30
0.0
 11
385.0128618182061
 21
390.3396156846649
 31
0.0
  0
LINE
  5
10C2
330
F06
100
AcDbEntity
  8
BEM
 62
     0
370
    -2
100
AcDbLine
 10
248.5412530491999
 20
256.69643404041
 30
0.0
 11
378.6489007875271
 21
386.8040817787323
 31
0.0
  0
SOLID
  5
10C3
330
F06
100
AcDbEntity
  8
BEM
 62
     0
100
AcDbTrace
 10
247.7162951378156
 20
257.5213919517943
 30
0.0
 11
249.3662109605842
 21
255.8714761290257
 31
0.0
 12
243.591505580894
 22
251.7466865721043
 32
0.0
 13
243.591505580894
 23
251.7466865721043
 33
0.0
  0
SOLID
  5
10C4
330
F06
100
AcDbEntity
  8
BEM
 62
     0
100
AcDbTrace
 10
377.8239428761428
 20
387.6290396901166
 30
0.0
 11
379.4738586989114
 21
385.979123867348
 31
0.0
 12
383.598648255833
 22
391.753829247038
 32
0.0
 13
383.598648255833
 23
391.753829247038
 33
0.0
  0
MTEXT
  5
10C5
330
F06
100
AcDbEntity
  8
BEM
 62
     1
100
AcDbMText
 10
308.998882840651
 20
326.3464519872838
 30
0.0
 40
7.0
 41
0.0
 71
     5
 72
     1
  1
\A1;198
 11
0.7071067811865608
 21
0.7071067811865344
 31
0.0
 73
     1
 44
1.0
  0
POINT
  5
10C6
330
F06
100
AcDbEntity
  8
Defpoints
 62
     0
100
AcDbPoint
 10
184.8478666490381
 20
310.4903255039622
 30
0.0
  0
POINT
  5
10C7
330
F06
100
AcDbEntity
  8
Defpoints
 62
     0
100
AcDbPoint
 10
358.942333275975
 20
416.410144226897
 30
0.0
  0
POINT
  5
10C8
330
F06
100
AcDbEntity
  8
Defpoints
 62
     0
100
AcDbPoint
 10
383.598648255833
 20
391.753829247038
 30
0.0
  0
ENDBLK
  5
F11
330
F06
100
AcDbEntity
  8
0
100
AcDbBlockEnd
  0
BLOCK
  5
F20
330
F14
100
AcDbEntity
  8
0
100
AcDbBlockBegin
  2
*D5
 70
     1
 10
0.0
 20
0.0
 30
0.0
  3
*D5
  1

  0
LINE
  5
F22
330
F14
100
AcDbEntity
  8
BEM
 62
     0
370
    -2
100
AcDbLine
 10
329.8047567922826
 20
455.4472156472066
 30
0.0
 11
340.4821483784926
 21
466.1246072334168
 31
0.0
  0
LINE
  5
F23
330
F14
100
AcDbEntity
  8
BEM
 62
     0
370
    -2
100
AcDbLine
 10
184.8478666490382
 20
515.4948544178115
 30
0.0
 11
184.8478666490384
 21
530.5904374959519
 31
0.0
  0
ARC
  5
F24
330
F14
100
AcDbEntity
  8
BEM
 62
     0
370
    -2
100
AcDbCircle
 10
184.8478666490382
 20
310.4903255039622
 30
0.0
 40
218.1001119919897
100
AcDbArc
 50
46.83900718526285
 51
88.16099281473716
  0
SOLID
  5
F25
330
F14
100
AcDbEntity
  8
BEM
 62
     0
100
AcDbTrace
 10
334.8510058149165
 20
470.4181621412887
 30
0.0
 11
333.2277797705777
 21
468.7419814668312
 31
0.0
 12
339.0679348161195
 22
464.7103936710436
 32
0.0
 13
339.0679348161195
 23
464.7103936710436
 33
0.0
  0
SOLID
  5
F26
330
F14
100
AcDbEntity
  8
BEM
 62
     0
100
AcDbTrace
 10
191.8282429542721
 20
527.3115873294187
 30
0.0
 11
191.8656875323242
 21
529.644620194172
 31
0.0
 12
184.8478666490384
 22
528.5904374959519
 32
0.0
 13
184.8478666490384
 23
528.5904374959519
 33
0.0
  0
MTEXT
  5
F27
330
F14
100
AcDbEntity
  8
BEM
 62
     1
100
AcDbMText
 10
270.7986084157164
 20
517.9937719731043
 30
0.0
 40
7.0
 41
0.0
 71
     5
 72
     1
  1
\A1;45°
 11
0.9238795325112864
 21
-0.3826834323650904
 31
0.0
 73
     1
 44
1.0
  0
POINT
  5
F28
330
F14
100
AcDbEntity
  8
Defpoints
 62
     0
100
AcDbPoint
 10
293.8979226450331
 20
499.3705630572564
 30
0.0
  0
POINT
  5
F29
330
F14
100
AcDbEntity
  8
Defpoints
 62
     0
100
AcDbPoint
 10
184.8478666490382
 20
513.4948544178114
 30
0.0
  0
POINT
  5
F2A
330
F14
100
AcDbEntity
  8
Defpoints
 62
     0
100
AcDbPoint
 10
328.3905432299095
 20
454.0330020848336
 30
0.0
  0
POINT
  5
F2B
330
F14
100
AcDbEntity
  8
Defpoints
 62
     0
100
AcDbPoint
 10
224.3324899936588
 20
349.9749488485827
 30
0.0
  0
POINT
  5
F2C
330
F14
100
AcDbEntity
  8
Defpoints
 62
     0
100
AcDbPoint
 10
184.8478666490382
 20
208.4903255039622
 30
0.0
  0
ENDBLK
  5
F21
330
F14
100
AcDbEntity
  8
0
100
AcDbBlockEnd
  0
BLOCK
  5
FAA
330
FA0
100
AcDbEntity
  8
0
100
AcDbBlockBegin
  2
*D6
 70
     1
 10
0.0
 20
0.0
 30
0.0
  3
*D6
  1

  0
LINE
  5
11F8
330
FA0
100
AcDbEntity
  8
BEM
 62
     0
370
    -2
100
AcDbLine
 10
134.6411108111133
 20
508.4948544178094
 30
0.0
 11
105.0478387609569
 21
508.4948544178094
 31
0.0
  0
LINE
  5
11F9
330
FA0
100
AcDbEntity
  8
BEM
 62
     0
370
    -2
100
AcDbLine
 10
138.9541755536502
 20
213.4903255039623
 30
0.0
 11
105.0478387609569
 21
213.4903255039623
 31
0.0
  0
LINE
  5
11FA
330
FA0
100
AcDbEntity
  8
BEM
 62
     0
370
    -2
100
AcDbLine
 10
107.0478387609569
 20
501.4948544178094
 30
0.0
 11
107.0478387609569
 21
220.4903255039623
 31
0.0
  0
SOLID
  5
11FB
330
FA0
100
AcDbEntity
  8
BEM
 62
     0
100
AcDbTrace
 10
105.8811720942903
 20
501.4948544178094
 30
0.0
 11
108.2145054276236
 21
501.4948544178094
 31
0.0
 12
107.0478387609569
 22
508.4948544178094
 32
0.0
 13
107.0478387609569
 23
508.4948544178094
 33
0.0
  0
SOLID
  5
11FC
330
FA0
100
AcDbEntity
  8
BEM
 62
     0
100
AcDbTrace
 10
105.8811720942902
 20
220.4903255039623
 30
0.0
 11
108.2145054276235
 21
220.4903255039623
 31
0.0
 12
107.0478387609569
 22
213.4903255039623
 32
0.0
 13
107.0478387609569
 23
213.4903255039623
 33
0.0
  0
MTEXT
  5
11FD
330
FA0
100
AcDbEntity
  8
BEM
 62
     1
100
AcDbMText
 10
100.5478387609568
 20
360.9925899608859
 30
0.0
 40
7.0
 41
0.0
 71
     5
 72
     1
  1
\A1;295
 11
0.0000000000000001
 21
1.0
 31
0.0
 73
     1
 44
1.0
  0
POINT
  5
11FE
330
FA0
100
AcDbEntity
  8
Defpoints
 62
     0
100
AcDbPoint
 10
136.6411108111133
 20
508.4948544178094
 30
0.0
  0
POINT
  5
11FF
330
FA0
100
AcDbEntity
  8
Defpoints
 62
     0
100
AcDbPoint
 10
140.9541755536502
 20
213.4903255039623
 30
0.0
  0
POINT
  5
1200
330
FA0
100
AcDbEntity
  8
Defpoints
 62
     0
100
AcDbPoint
 10
107.0478387609569
 20
213.4903255039623
 30
0.0
  0
ENDBLK
  5
FAB
330
FA0
100
AcDbEntity
  8
0
100
AcDbBlockEnd
  0
ENDSEC
  0
SECTION
  2
ENTITIES
  0
LINE
  5
57
330
1E
100
AcDbEntity
  8
STEMPEL
100
AcDbLine
 10
410.0
 20
110.0
 30
0.0
 11
39.99999999999997
 21
110.0
 31
0.0
  0
LINE
  5
58
330
1E
100
AcDbEntity
  8
STEMPEL
100
AcDbLine
 10
146.0000000000001
 20
109.9999999999999
 30
0.0
 11
146.0
 21
9.999999999999971
 31
0.0
  0
LINE
  5
59
330
1E
100
AcDbEntity
  8
STEMPEL
100
AcDbLine
 10
230.0
 20
110.0
 30
0.0
 11
230.0
 21
9.999999999999971
 31
0.0
  0
LINE
  5
5A
330
1E
100
AcDbEntity
  8
STEMPEL
100
AcDbLine
 10
332.0
 20
109.9999999999997
 30
0.0
 11
332.0
 21
40.0
 31
0.0
  0
LINE
  5
5B
330
1E
100
AcDbEntity
  8
STEMPEL
100
AcDbLine
 10
145.9999999999999
 20
29.99999999999997
 30
0.0
 11
39.99999999999997
 21
29.99999999999997
 31
0.0
  0
LINE
  5
5C
330
1E
100
AcDbEntity
  8
STEMPEL
100
AcDbLine
 10
410.0
 20
40.0
 30
0.0
 11
146.0000000000001
 21
39.99999999999997
 31
0.0
  0
LINE
  5
5D
330
1E
100
AcDbEntity
  8
STEMPEL
100
AcDbLine
 10
410.0
 20
80.0
 30
0.0
 11
146.0000000000001
 21
79.99999999999994
 31
0.0
  0
LINE
  5
5E
330
1E
100
AcDbEntity
  8
VOLL
100
AcDbLine
 10
54.00000000000009
 20
110.0
 30
0.0
 11
53.99999999999997
 21
9.999999999999971
 31
0.0
  0
LINE
  5
5F
330
1E
100
AcDbEntity
  8
VOLL
100
AcDbLine
 10
104.0000000000001
 20
109.9999999999999
 30
0.0
 11
104.0
 21
9.999999999999971
 31
0.0
  0
LINE
  5
60
330
1E
100
AcDbEntity
  8
VOLL
100
AcDbLine
 10
124.0000000000001
 20
109.9999999999999
 30
0.0
 11
124.0
 21
9.999999999999971
 31
0.0
  0
LINE
  5
61
330
1E
100
AcDbEntity
  8
VOLL
100
AcDbLine
 10
164.0000000000001
 20
79.99999999999994
 30
0.0
 11
164.0000000000001
 21
39.99999999999997
 31
0.0
  0
LINE
  5
62
330
1E
100
AcDbEntity
  8
VOLL
100
AcDbLine
 10
190.0000000000001
 20
109.9999999999998
 30
0.0
 11
190.0
 21
39.99999999999997
 31
0.0
  0
LINE
  5
63
330
1E
100
AcDbEntity
  8
HILF
100
AcDbLine
 10
40.00000000000008
 20
100.0
 30
0.0
 11
146.0000000000001
 21
100.0
 31
0.0
  0
LINE
  5
64
330
1E
100
AcDbEntity
  8
HILF
100
AcDbLine
 10
40.00000000000008
 20
90.00000000000005
 30
0.0
 11
146.0000000000001
 21
90.00000000000005
 31
0.0
  0
LINE
  5
65
330
1E
100
AcDbEntity
  8
HILF
100
AcDbLine
 10
40.00000000000008
 20
79.99999999999994
 30
0.0
 11
146.0000000000001
 21
79.99999999999994
 31
0.0
  0
LINE
  5
66
330
1E
100
AcDbEntity
  8
HILF
100
AcDbLine
 10
40.00000000000008
 20
69.99999999999994
 30
0.0
 11
146.0000000000001
 21
69.99999999999994
 31
0.0
  0
LINE
  5
67
330
1E
100
AcDbEntity
  8
HILF
100
AcDbLine
 10
40.00000000000008
 20
59.99999999999997
 30
0.0
 11
146.0000000000001
 21
59.99999999999997
 31
0.0
  0
LINE
  5
68
330
1E
100
AcDbEntity
  8
HILF
100
AcDbLine
 10
40.00000000000008
 20
49.99999999999997
 30
0.0
 11
146.0000000000001
 21
49.99999999999997
 31
0.0
  0
LINE
  5
69
330
1E
100
AcDbEntity
  8
HILF
100
AcDbLine
 10
40.00000000000008
 20
39.99999999999997
 30
0.0
 11
146.0000000000001
 21
39.99999999999997
 31
0.0
  0
LINE
  5
6A
330
1E
100
AcDbEntity
  8
HILF
100
AcDbLine
 10
146.0000000000001
 20
69.99999999999994
 30
0.0
 11
230.0
 21
69.99999999999994
 31
0.0
  0
LINE
  5
6B
330
1E
100
AcDbEntity
  8
HILF
100
AcDbLine
 10
146.0000000000001
 20
59.99999999999997
 30
0.0
 11
230.0
 21
59.99999999999997
 31
0.0
  0
LINE
  5
6C
330
1E
100
AcDbEntity
  8
HILF
100
AcDbLine
 10
146.0000000000001
 20
49.99999999999997
 30
0.0
 11
230.0
 21
49.99999999999997
 31
0.0
  0
LINE
  5
6D
330
1E
100
AcDbEntity
  8
HILF
100
AcDbLine
 10
234.7736801096947
 20
84.03758247564139
 30
0.0
 11
324.8353916556311
 21
84.03758247564139
 31
0.0
  0
LINE
  5
6E
330
1E
100
AcDbEntity
  8
HILF
100
AcDbLine
 10
234.7736801096947
 20
69.99999999999994
 30
0.0
 11
324.835391655631
 21
69.99999999999994
 31
0.0
  0
LINE
  5
6F
330
1E
100
AcDbEntity
  8
HILF
100
AcDbLine
 10
234.7736801096947
 20
59.99999999999997
 30
0.0
 11
324.835391655631
 21
59.99999999999997
 31
0.0
  0
LINE
  5
70
330
1E
100
AcDbEntity
  8
HILF
100
AcDbLine
 10
234.7736801096947
 20
49.99999999999997
 30
0.0
 11
324.835391655631
 21
49.99999999999997
 31
0.0
  0
LINE
  5
71
330
1E
100
AcDbEntity
  8
VOLL
100
AcDbLine
 10
332.0
 20
60.0
 30
0.0
 11
410.0
 21
60.0
 31
0.0
  0
LINE
  5
72
330
1E
100
AcDbEntity
  8
HILF
100
AcDbLine
 10
336.7238616296993
 20
83.77983636955827
 30
0.0
 11
404.8588839326728
 21
83.77983636955827
 31
0.0
  0
LINE
  5
73
330
1E
100
AcDbEntity
  8
HILF
100
AcDbLine
 10
233.4909699289885
 20
14.89398258028314
 30
0.0
 11
404.8588839326728
 21
14.89398258028314
 31
0.0
  0
TEXT
  5
74
330
1E
100
AcDbEntity
  8
TEXT
100
AcDbText
 10
67.79509897490102
 20
18.67381894984132
 30
0.0
 40
4.0
  1
Änderung
 41
0.8
  7
GREEKS
 72
     1
 11
78.53795611775817
 21
18.67381894984132
 31
0.0
100
AcDbText
  0
TEXT
  5
75
330
1E
100
AcDbEntity
  8
TEXT
100
AcDbText
 10
153.5163572150377
 20
102.4620895087088
 30
0.0
 40
5.0
  1
Maßstab
 41
0.8
  7
GREEKS
100
AcDbText
  0
TEXT
  5
76
330
1E
100
AcDbEntity
  8
TEXT
100
AcDbText
 10
194.2858954734051
 20
102.4184168434819
 30
0.0
 40
5.0
  1
Zul. Abw.
 41
0.8
  7
GREEKS
100
AcDbText
  0
TEXT
  5
77
330
1E
100
AcDbEntity
  8
TEXT
100
AcDbText
 10
234.877940380901
 20
102.5489328011779
 30
0.0
 40
5.0
  1
Benennung
 41
0.8
  7
GREEKS
100
AcDbText
  0
TEXT
  5
78
330
1E
100
AcDbEntity
  8
TEXT
100
AcDbText
 10
336.178754957634
 20
102.3132034537136
 30
0.0
 40
5.0
  1
Zeichnungs Nr.
 41
0.8
  7
GREEKS
100
AcDbText
  0
TEXT
  5
79
330
1E
100
AcDbEntity
  8
TEXT
100
AcDbText
 10
234.742238391136
 20
30.84560570193057
 30
0.0
 40
5.0
  1
Bauvorhaben
 41
0.8
  7
GREEKS
100
AcDbText
  0
TEXT
  5
7A
330
1E
100
AcDbEntity
  8
TEXT
100
AcDbText
 10
336.7238616296993
 20
73.1811823709997
 30
0.0
 40
5.0
  1
Ersatz für:
 41
0.8
  7
GREEKS
100
AcDbText
  0
TEXT
  5
7B
330
1E
100
AcDbEntity
  8
TEXT
100
AcDbText
 10
48.26641107045756
 20
13.65465846027192
 30
0.0
 40
4.0
  1
Index
 50
90.0
 41
0.8
  7
GREEKS
100
AcDbText
  0
TEXT
  5
7C
330
1E
100
AcDbEntity
  8
TEXT
100
AcDbText
 10
110.6986119235389
 20
18.6715626933981
 30
0.0
 40
4.0
  1
Tag
 41
0.8
  7
GREEKS
 72
     1
 11
114.4319452568723
 21
18.6715626933981
 31
0.0
100
AcDbText
  0
TEXT
  5
7D
330
1E
100
AcDbEntity
  8
TEXT
100
AcDbText
 10
129.0122744386592
 20
18.59324216966408
 30
0.0
 40
4.0
  1
Name
 41
0.8
  7
GREEKS
 72
     1
 11
135.3360839624688
 21
18.59324216966408
 31
0.0
100
AcDbText
  0
TEXT
  5
7E
330
1E
100
AcDbEntity
  8
TEXT
100
AcDbText
 10
172.331167315365
 20
73.31880501229926
 30
0.0
 40
4.0
  1
Tag
 41
0.8
  7
GREEKS
100
AcDbText
  0
TEXT
  5
7F
330
1E
100
AcDbEntity
  8
TEXT
100
AcDbText
 10
202.4626584226295
 20
73.30961091915225
 30
0.0
 40
4.0
  1
Name
 41
0.8
  7
GREEKS
100
AcDbText
  0
TEXT
  5
80
330
1E
100
AcDbEntity
  8
TEXT
100
AcDbText
 10
147.5836127167615
 20
63.62990369617964
 30
0.0
 40
4.0
  1
Gez.
 41
0.8
  7
GREEKS
100
AcDbText
  0
TEXT
  5
81
330
1E
100
AcDbEntity
  8
TEXT
100
AcDbText
 10
147.5515086571672
 20
53.68926291428377
 30
0.0
 40
4.0
  1
Gepr.
 41
0.8
  7
GREEKS
100
AcDbText
  0
TEXT
  5
82
330
1E
100
AcDbEntity
  8
TEXT
100
AcDbText
 10
147.6006777387303
 20
43.52946389649807
 30
0.0
 40
4.0
  1
Norm.
 41
0.8
  7
GREEKS
100
AcDbText
  0
LINE
  5
83
330
1E
100
AcDbEntity
  8
STEMPEL
100
AcDbLine
 10
49.99999999999989
 20
10.0
 30
0.0
 11
410.0
 21
10.0
 31
0.0
  0
TEXT
  5
84
330
1E
100
AcDbEntity
  8
TEXT
100
AcDbText
 10
337.2400861497006
 20
52.07416177878602
 30
0.0
 40
5.0
  1
ersetzt durch:
 41
0.8
  7
GREEKS
100
AcDbText
  0
LINE
  5
85
330
1E
100
AcDbEntity
  8
STEMPEL
100
AcDbLine
 10
410.0
 20
10.0
 30
0.0
 11
39.99999999999989
 21
10.0
 31
0.0
  0
LINE
  5
86
330
1E
100
AcDbEntity
  8
STEMPEL
100
AcDbLine
 10
410.0
 20
10.0
 30
0.0
 11
410.0
 21
584.0
 31
0.0
  0
LINE
  5
87
330
1E
100
AcDbEntity
  8
STEMPEL
100
AcDbLine
 10
40.0
 20
10.0
 30
0.0
 11
39.99999999999989
 21
584.0
 31
0.0
  0
LINE
  5
88
330
1E
100
AcDbEntity
  8
STEMPEL
100
AcDbLine
 10
410.0
 20
584.0
 30
0.0
 11
39.99999999999989
 21
584.0
 31
0.0
  0
LINE
  5
89
330
1E
100
AcDbEntity
  8
HILF
100
AcDbLine
 10
0.0
 20
0.0
 30
0.0
 11
-0.0000000000001137
 21
594.0
 31
0.0
  0
LINE
  5
8A
330
1E
100
AcDbEntity
  8
HILF
100
AcDbLine
 10
419.9999999999999
 20
594.0000000000002
 30
0.0
 11
0.0
 21
594.0
 31
0.0
  0
LINE
  5
8B
330
1E
100
AcDbEntity
  8
HILF
100
AcDbLine
 10
420.0
 20
0.0
 30
0.0
 11
0.0
 21
0.0
 31
0.0
  0
LINE
  5
8C
330
1E
100
AcDbEntity
  8
HILF
100
AcDbLine
 10
31.08767135713856
 20
297.0
 30
0.0
 11
0.0000000000001137
 21
297.0
 31
0.0
  0
TEXT
  5
8D
330
1E
100
AcDbEntity
  8
TEXT
100
AcDbText
 10
148.622109822104
 20
73.14025471151666
 30
0.0
 40
4.0
  1
2012
 41
0.8
  7
GREEKS
100
AcDbText
  0
LINE
  5
8E
330
1E
100
AcDbEntity
  8
HILF
100
AcDbLine
 10
420.0
 20
-0.0000000000001137
 30
0.0
 11
419.9999999999999
 21
594.0
 31
0.0
  0
TEXT
  5
8F
330
1E
100
AcDbEntity
  8
VOLL
100
AcDbText
 10
78.07675471698113
 20
31.02594776470585
 30
0.0
 40
1.8
  1

  7
GREEKS
100
AcDbText
  0
TEXT
  5
90
330
1E
100
AcDbEntity
  8
TEXT
100
AcDbText
 10
41.85509950977674
 20
111.6719999999999
 30
0.0
 40
5.0
  1
Erstellt mit AUTOCAD 2004
 41
0.8
  7
GREEKS
100
AcDbText
  0
TEXT
  5
91
330
1E
100
AcDbEntity
  8
TEXT
100
AcDbText
 10
204.4216048581257
 20
63.0896391972351
 30
0.0
 40
4.0
  1
Koeh
 41
0.8
  7
GREEKS
 72
     1
 11
209.6787477152686
 21
63.0896391972351
 31
0.0
100
AcDbText
  0
TEXT
  5
92
330
1E
100
AcDbEntity
  8
TEXT
 62
     1
100
AcDbText
 10
346.562772406582
 20
88.14901428913959
 30
0.0
 40
7.0
  1
00220MM0N
 41
0.8
  7
GREEKS
 72
     1
 11
370.8294390732486
 21
88.14901428913959
 31
0.0
100
AcDbText
  0
TEXT
  5
93
330
1E
100
AcDbEntity
  8
TEXT
 62
     1
100
AcDbText
 10
160.5006306481887
 20
88.14901428913959
 30
0.0
 40
7.0
  1
1:2
 41
0.8
  7
GREEKS
100
AcDbText
  0
TEXT
  5
94
330
1E
100
AcDbEntity
  8
TEXT
100
AcDbText
 10
170.398997108236
 20
63.10765040825732
 30
0.0
 40
4.0
  1
20.02.
 41
0.8
  7
GREEKS
 72
     1
 11
177.4085209177598
 21
63.10765040825732
 31
0.0
100
AcDbText
  0
TEXT
  5
95
330
1E
100
AcDbEntity
  8
TEXT
 62
     1
100
AcDbText
 10
234.8732996649198
 20
87.41748789253779
 30
0.0
 40
7.0
  1
Abzweig DN80 45°
 41
0.8
  7
GREEKS
100
AcDbText
  0
TEXT
  5
98
330
1E
100
AcDbEntity
  8
TEXT
100
AcDbText
 10
235.1296391125315
 20
51.64011943042158
 30
0.0
 40
5.0
  1
EDV-Art.Nr. 00220.MM0N
 41
0.8
  7
GREEKS
100
AcDbText
  0
TEXT
  5
99
330
1E
100
AcDbEntity
  8
TEXT
100
AcDbText
 10
234.9837501577827
 20
42.62974153022632
 30
0.0
 40
4.0
  1
00220MM0N.DWG
 41
0.8
  7
GREEKS
100
AcDbText
  0
TEXT
  5
9A
330
1E
100
AcDbEntity
  8
TEXT
100
AcDbText
 10
192.626132208084
 20
90.76363841023022
 30
0.0
 40
4.0
  1
DIN EN1123-2
 41
0.8
  7
GREEKS
 72
     1
 11
209.6166083985602
 21
90.76363841023022
 31
0.0
100
AcDbText
  0
INSERT
  5
9B
330
1E
100
AcDbEntity
  8
STEMPEL
100
AcDbBlockReference
  2
LOGO
 10
150.9955485457794
 20
45.02105276448322
 30
0.0
 41
2.0
 42
2.0
 43
2.0
  0
TEXT
  5
1D3
330
1E
100
AcDbEntity
  8
TEXT
 62
     1
100
AcDbText
 10
52.49874099215844
 20
154.1323008592396
 30
0.0
 40
7.0
  1
Rohrende leicht eingezogen
 41
0.8
  7
GREEKS
100
AcDbText
  0
TEXT
  5
7D5
330
1E
100
AcDbEntity
  8
VOLL
100
AcDbText
 10
199.479523386162
 20
238.3463558099684
 30
0.0
 40
1.8
  1

  7
GREEKS
100
AcDbText
  0
TEXT
  5
BB5
330
1E
100
AcDbEntity
  8
VOLL
100
AcDbText
 10
526.0874530650375
 20
237.0997877866677
 30
0.0
 40
1.8
  1

  7
GREEKS
100
AcDbText
  0
LINE
  5
BC2
330
1E
100
AcDbEntity
  8
MITTEL
100
AcDbLine
 10
184.8478666490382
 20
513.4948544178114
 30
0.0
 11
184.8478666490382
 21
208.4903255039622
 31
0.0
  0
LINE
  5
BC3
330
1E
100
AcDbEntity
  8
STEMPEL
100
AcDbLine
 10
228.741557744426
 20
213.4903255039622
 30
0.0
 11
140.9541755536502
 21
213.4903255039623
 31
0.0
  0
LINE
  5
BE0
330
1E
100
AcDbEntity
  8
HILF
100
AcDbLine
 10
227.7478666490382
 20
220.4903255039622
 30
0.0
 11
141.9478666490381
 21
220.4903255039623
 31
0.0
  0
LINE
  5
BE1
330
1E
100
AcDbEntity
  8
STEMPEL
100
AcDbLine
 10
140.3478666490382
 20
220.420467995308
 30
0.0
 11
140.9541755536502
 21
213.4903255039623
 31
0.0
  0
LINE
  5
BE2
330
1E
100
AcDbEntity
  8
STEMPEL
100
AcDbLine
 10
229.3478666490382
 20
220.4204679953084
 30
0.0
 11
228.741557744426
 21
213.4903255039622
 31
0.0
  0
LINE
  5
BE7
330
1E
100
AcDbEntity
  8
STEMPEL
100
AcDbLine
 10
229.3478666490383
 20
442.4577329454622
 30
0.0
 11
229.3478666490384
 21
424.4228290295651
 31
0.0
  0
LINE
  5
BE8
330
1E
100
AcDbEntity
  8
STEMPEL
100
AcDbLine
 10
140.3478666490382
 20
442.4577329454622
 30
0.0
 11
140.3478666490382
 21
220.420467995308
 31
0.0
  0
DIMENSION
  5
BE9
330
1E
100
AcDbEntity
  8
BEM
100
AcDbDimension
  2
*D2
 10
229.3478666490382
 20
193.3751276181365
 30
0.0
 11
184.8478666490382
 21
199.8751276181365
 31
0.0
 70
    32
  1
%%C<>
 71
     5
 42
89.0
  3
Standard
100
AcDbAlignedDimension
 13
140.3478666490382
 23
220.420467995308
 33
0.0
 14
229.3478666490382
 24
220.4204679953084
 34
0.0
100
AcDbRotatedDimension
1001
ACAD
1000
DSTYLE
1002
{
1070
    40
1040
2.0
1070
    41
1040
3.5
1070
    42
1040
1.0
1070
    43
1040
7.0
1070
    44
1040
1.0
1070
    73
1070
     0
1070
    74
1070
     0
1070
    77
1070
     1
1070
    78
1070
     8
1070
    79
1070
     2
1070
   140
1040
3.5
1070
   141
1040
1.5
1070
   146
1040
0.5142857142857144
1070
   147
1040
1.5
1070
   172
1070
     1
1070
   178
1070
     1
1070
   179
1070
     2
1070
   271
1070
     2
1070
   272
1070
     2
1070
   284
1070
     8
1070
   285
1070
     8
1070
   286
1070
     8
1002
}
  0
TEXT
  5
C92
330
1E
100
AcDbEntity
  8
VOLL
100
AcDbText
 10
176.6580996271564
 20
480.9927443562748
 30
0.0
 40
7.0
  1
DN80
 50
90.0
 41
0.8
  7
GREEKS
100
AcDbText
  0
TEXT
  5
C93
330
1E
100
AcDbEntity
  8
VOLL
100
AcDbText
 10
299.6170410050149
 20
436.8415794549601
 30
0.0
 40
7.0
  1
DN80
 50
45.00000000000001
 41
0.8
  7
GREEKS
100
AcDbText
  0
LINE
  5
C94
102
{ACAD_REACTORS
330
11AB
102
}
330
1E
100
AcDbEntity
  8
STEMPEL
100
AcDbLine
 10
309.6259646836402
 20
372.3359200129615
 30
0.0
 11
229.3478666490383
 21
292.0578219783595
 31
0.0
  0
LINE
  5
CA1
330
1E
100
AcDbEntity
  8
MITTEL
100
AcDbLine
 10
328.3905432299095
 20
454.0330020848334
 30
0.0
 11
184.8478666490382
 21
310.4903255039624
 31
0.0
  0
LINE
  5
CAA
102
{ACAD_REACTORS
330
11C7
102
}
330
1E
100
AcDbEntity
  8
STEMPEL
100
AcDbLine
 10
246.6934611580375
 20
435.2684235385642
 30
0.0
 11
229.3478666490381
 21
417.9228290295649
 31
0.0
  0
LINE
  5
CCF
102
{ACAD_REACTORS
330
11AB
102
}
330
1E
100
AcDbEntity
  8
STEMPEL
100
AcDbLine
 10
229.3478666490382
 20
292.0578219783595
 30
0.0
 11
229.3478666490382
 21
220.4204679953084
 31
0.0
  0
DIMENSION
  5
D42
330
1E
100
AcDbEntity
  8
BEM
100
AcDbDimension
  2
*D3
 10
123.3133700753819
 20
213.4903255039623
 30
0.0
 11
116.8133700753819
 21
261.9903255039623
 31
0.0
 70
    32
 71
     5
 42
97.00000000000002
  3
Standard
100
AcDbAlignedDimension
 13
184.8478666490382
 23
310.4903255039622
 33
0.0
 14
140.9541755536502
 24
213.4903255039623
 34
0.0
 50
90.0
100
AcDbRotatedDimension
1001
ACAD
1000
DSTYLE
1002
{
1070
    40
1040
2.0
1070
    41
1040
3.5
1070
    42
1040
1.0
1070
    43
1040
7.0
1070
    44
1040
1.0
1070
    73
1070
     0
1070
    74
1070
     0
1070
    77
1070
     1
1070
    78
1070
     8
1070
    79
1070
     2
1070
   140
1040
3.5
1070
   141
1040
1.5
1070
   146
1040
0.5142857142857144
1070
   147
1040
1.5
1070
   172
1070
     1
1070
   178
1070
     1
1070
   179
1070
     2
1070
   271
1070
     2
1070
   272
1070
     2
1070
   284
1070
     8
1070
   285
1070
     8
1070
   286
1070
     8
1002
}
  0
DIMENSION
  5
F05
330
1E
100
AcDbEntity
  8
BEM
100
AcDbDimension
  2
*D4
 10
383.598648255833
 20
391.753829247038
 30
0.0
 11
308.998882840651
 21
326.3464519872838
 31
0.0
 70
    32
 71
     5
 42
198.0
 51
45.00000000000106
  3
Standard
100
AcDbAlignedDimension
 13
184.8478666490382
 23
310.4903255039622
 33
0.0
 14
358.9423332759749
 24
416.410144226897
 34
0.0
 50
44.99999999999896
100
AcDbRotatedDimension
1001
ACAD
1000
DSTYLE
1002
{
1070
    40
1040
2.0
1070
    41
1040
3.5
1070
    42
1040
1.0
1070
    43
1040
7.0
1070
    44
1040
1.0
1070
    73
1070
     0
1070
    74
1070
     0
1070
    77
1070
     1
1070
    78
1070
     8
1070
    79
1070
     2
1070
   140
1040
3.5
1070
   141
1040
1.5
1070
   146
1040
0.5142857142857144
1070
   147
1040
1.5
1070
   172
1070
     1
1070
   178
1070
     1
1070
   179
1070
     2
1070
   271
1070
     2
1070
   272
1070
     2
1070
   284
1070
     8
1070
   285
1070
     8
1070
   286
1070
     8
1002
}
  0
DIMENSION
  5
F13
330
1E
100
AcDbEntity
  8
BEM
100
AcDbDimension
  2
*D5
 10
184.8478666490382
 20
208.4903255039622
 30
0.0
 11
270.7986084157164
 21
517.9937719731044
 31
0.0
 70
    34
 71
     5
 42
0.785398163397447
  3
Standard
100
AcDb2LineAngularDimension
 13
328.3905432299095
 23
454.0330020848334
 33
0.0
 14
224.3324899936587
 24
349.9749488485827
 34
0.0
 15
184.8478666490382
 25
513.4948544178114
 35
0.0
 16
293.8979226450331
 26
499.3705630572564
 36
0.0
1001
ACAD
1000
DSTYLE
1002
{
1070
    40
1040
2.0
1070
    41
1040
3.5
1070
    42
1040
1.0
1070
    43
1040
7.0
1070
    44
1040
1.0
1070
    73
1070
     0
1070
    74
1070
     0
1070
    77
1070
     1
1070
    78
1070
     8
1070
    79
1070
     2
1070
   140
1040
3.5
1070
   141
1040
1.5
1070
   146
1040
0.5142857142857144
1070
   147
1040
1.5
1070
   172
1070
     1
1070
   178
1070
     1
1070
   179
1070
     2
1070
   271
1070
     2
1070
   272
1070
     2
1070
   284
1070
     8
1070
   285
1070
     8
1070
   286
1070
     8
1002
}
  0
DIMENSION
  5
F9F
330
1E
100
AcDbEntity
  8
BEM
100
AcDbDimension
  2
*D6
 10
107.0478387609569
 20
213.4903255039623
 30
0.0
 11
100.5478387609568
 21
360.9925899608859
 31
0.0
 70
    32
 71
     5
 42
295.0045289138472
  3
Standard
100
AcDbAlignedDimension
 13
136.6411108111133
 23
508.4948544178094
 33
0.0
 14
140.9541755536502
 24
213.4903255039623
 34
0.0
 50
90.0
100
AcDbRotatedDimension
1001
ACAD
1000
DSTYLE
1002
{
1070
    40
1040
2.0
1070
    41
1040
3.5
1070
    42
1040
1.0
1070
    43
1040
7.0
1070
    44
1040
1.0
1070
    73
1070
     0
1070
    74
1070
     0
1070
    77
1070
     1
1070
    78
1070
     8
1070
    79
1070
     2
1070
   140
1040
3.5
1070
   141
1040
1.5
1070
   146
1040
0.5142857142857144
1070
   147
1040
1.5
1070
   172
1070
     1
1070
   178
1070
     1
1070
   179
1070
     2
1070
   271
1070
     2
1070
   272
1070
     2
1070
   284
1070
     8
1070
   285
1070
     8
1070
   286
1070
     8
1002
}
  0
TEXT
  5
1051
330
1E
100
AcDbEntity
  8
TEXT
 62
     1
100
AcDbText
 10
232.5794452000148
 20
130.0900323526005
 30
0.0
 40
7.0
  1
Werkstoff: SF-Cu DIN1754/1786
 41
0.8
  7
GREEKS
100
AcDbText
  0
LINE
  5
106E
330
1E
100
AcDbEntity
  8
STEMPEL
100
AcDbLine
 10
352.3581033207264
 20
405.1685637134365
 30
0.0
 11
347.4374720489169
 21
400.2479324416271
 31
0.0
  0
ARC
  5
106F
330
1E
100
AcDbEntity
  8
STEMPEL
100
AcDbCircle
 10
329.4286785216842
 20
418.1601633986712
 30
0.0
 40
25.40009324312573
100
AcDbArc
 50
289.9670575584338
 51
315.1564859543474
  0
ARC
  5
1070
330
1E
100
AcDbEntity
  8
STEMPEL
100
AcDbCircle
 10
342.0093257456721
 20
383.3646562831605
 30
0.0
 40
11.6
100
AcDbArc
 50
109.692276901978
 51
135.0
  0
LINE
  5
1071
330
1E
100
AcDbEntity
  8
STEMPEL
100
AcDbLine
 10
333.8068870839082
 20
391.5670949449244
 30
0.0
 11
320.1801329414503
 21
377.9403408024664
 31
0.0
  0
ARC
  5
1072
330
1E
100
AcDbEntity
  8
STEMPEL
100
AcDbCircle
 10
311.412008854737
 20
386.7084648891796
 30
0.0
 40
12.4
100
AcDbArc
 50
280.9379376200663
 51
315.0
  0
ARC
  5
1073
330
1E
100
AcDbEntity
  8
STEMPEL
  6
Continuous
100
AcDbCircle
 10
334.6804337910627
 20
422.8462332431003
 30
0.0
 40
25.0
100
AcDbArc
 50
315.0
 51
339.9999999999949
  0
LINE
  5
1074
330
1E
100
AcDbEntity
  8
STEMPEL
  6
Continuous
100
AcDbLine
 10
358.9423332759754
 20
416.410144226899
 30
0.0
 11
358.1727493107104
 21
414.2957296599585
 31
0.0
  0
ARC
  5
1075
330
1E
100
AcDbEntity
  8
STEMPEL
100
AcDbCircle
 10
315.2828189331323
 20
366.6790657634694
 30
0.0
 40
8.0
100
AcDbArc
 50
100.9379376200662
 51
135.0
  0
ARC
  5
1076
330
1E
100
AcDbEntity
  8
STEMPEL
100
AcDbCircle
 10
241.0366069085447
 20
440.925277788057
 30
0.0
 40
8.0
100
AcDbArc
 50
315.0
 51
349.0620623799337
  0
LINE
  5
1077
330
1E
100
AcDbEntity
  8
STEMPEL
  6
Continuous
100
AcDbLine
 10
290.7676853719744
 20
484.5847921309
 30
0.0
 11
288.6532708050339
 21
483.8152081656351
 31
0.0
  0
ARC
  5
1078
330
1E
100
AcDbEntity
  8
STEMPEL
  6
Continuous
100
AcDbCircle
 10
297.2037743881756
 20
460.3228926459873
 30
0.0
 40
25.0
100
AcDbArc
 50
110.000000000005
 51
135.0
  0
ARC
  5
1079
330
1E
100
AcDbEntity
  8
STEMPEL
100
AcDbCircle
 10
261.0660060342548
 20
437.0544677096617
 30
0.0
 40
12.4
100
AcDbArc
 50
135.0
 51
169.0620623799337
  0
LINE
  5
107A
330
1E
100
AcDbEntity
  8
STEMPEL
100
AcDbLine
 10
265.9246360899996
 20
459.4493459388329
 30
0.0
 11
252.2978819475417
 21
445.822591796375
 31
0.0
  0
ARC
  5
107B
330
1E
100
AcDbEntity
  8
STEMPEL
100
AcDbCircle
 10
257.7221974282356
 20
467.6517846005968
 30
0.0
 40
11.6
100
AcDbArc
 50
315.0
 51
340.307723098022
  0
ARC
  5
107C
330
1E
100
AcDbEntity
  8
STEMPEL
100
AcDbCircle
 10
292.5177045437464
 20
455.0711373766089
 30
0.0
 40
25.40009324312573
100
AcDbArc
 50
134.8435140456526
 51
160.0329424415662
  0
LINE
  5
107D
330
1E
100
AcDbEntity
  8
STEMPEL
100
AcDbLine
 10
279.5261048585119
 20
478.0005621756511
 30
0.0
 11
274.6054735867024
 21
473.0799309038416
 31
0.0
  0
TEXT
  5
107E
330
1E
100
AcDbEntity
  8
VOLL
100
AcDbText
 10
299.6170410050144
 20
436.8415794549603
 30
0.0
 40
7.0
  1
DN80
 50
44.99999999999999
 41
0.8
  7
GREEKS
100
AcDbText
  0
LINE
  5
107F
330
1E
100
AcDbEntity
  8
HILF
  6
Continuous
100
AcDbLine
 10
269.2108270503246
 20
460.3736399602054
 30
0.0
 11
334.7311811052806
 21
394.8532859052494
 31
0.0
  0
LINE
  5
1080
330
1E
100
AcDbEntity
  8
HILF
  6
Continuous
100
AcDbLine
 10
251.9555635792646
 20
442.0704260701659
 30
0.0
 11
316.4279672152412
 21
377.5980224341893
 31
0.0
  0
LINE
  5
1081
330
1E
100
AcDbEntity
  8
HILF
  6
Continuous
100
AcDbLine
 10
249.9628030218506
 20
436.811719302445
 30
0.0
 11
311.1692604475201
 21
375.6052618767754
 31
0.0
  0
LINE
  5
1082
330
1E
100
AcDbEntity
  8
STEMPEL
100
AcDbLine
 10
290.7676853719744
 20
484.5847921309
 30
0.0
 11
358.9423332759749
 21
416.410144226897
 31
0.0
  0
LINE
  5
1084
330
1E
100
AcDbEntity
  8
STEMPEL
100
AcDbLine
 10
309.6259646836398
 20
372.3359200129618
 30
0.0
 11
297.5526878315598
 21
360.2626431608813
 31
0.0
  0
LINE
  5
1099
102
{ACAD_REACTORS
330
11C7
102
}
330
1E
100
AcDbEntity
  8
STEMPEL
100
AcDbLine
 10
229.3478666490378
 20
442.4577329454622
 30
0.0
 11
229.3478666490381
 21
417.9228290295649
 31
0.0
  0
LINE
  5
109A
330
1E
100
AcDbEntity
  8
STEMPEL
100
AcDbLine
 10
136.6411108111133
 20
508.4948544178094
 30
0.0
 11
233.0546224869631
 21
508.4948544178075
 31
0.0
  0
LINE
  5
109B
330
1E
100
AcDbEntity
  8
HILF
  6
Continuous
100
AcDbLine
 10
141.568365550941
 20
445.8607816473982
 30
0.0
 11
228.1273677471343
 21
445.8607816473982
 31
0.0
  0
LINE
  5
109C
330
1E
100
AcDbEntity
  8
HILF
  6
Continuous
100
AcDbLine
 10
139.2589928386424
 20
450.9883433665537
 30
0.0
 11
230.436740459433
 21
450.9883433665537
 31
0.0
  0
LINE
  5
109D
330
1E
100
AcDbEntity
  8
HILF
  6
Continuous
100
AcDbLine
 10
138.5179799910348
 20
476.1319838372555
 30
0.0
 11
231.1777533070406
 21
476.1319838372555
 31
0.0
  0
LINE
  5
109E
330
1E
100
AcDbEntity
  8
STEMPEL
100
AcDbLine
 10
133.3478666490376
 20
495.8901029552373
 30
0.0
 11
133.3478666490376
 21
488.9312794752072
 31
0.0
  0
ARC
  5
109F
330
1E
100
AcDbEntity
  8
STEMPEL
100
AcDbCircle
 10
158.7478666490377
 20
488.8629994270181
 30
0.0
 40
25.40009324312573
100
AcDbArc
 50
179.8435140456526
 51
205.0329424415662
  0
ARC
  5
10A0
330
1E
100
AcDbEntity
  8
STEMPEL
100
AcDbCircle
 10
125.2478666490377
 20
473.1547213546132
 30
0.0
 40
11.6
100
AcDbArc
 50
0.0
 51
25.30772309802202
  0
LINE
  5
10A1
330
1E
100
AcDbEntity
  8
STEMPEL
100
AcDbLine
 10
136.8478666490376
 20
473.1547213546132
 30
0.0
 11
136.8478666490376
 21
453.8835808352254
 31
0.0
  0
ARC
  5
10A2
330
1E
100
AcDbEntity
  8
STEMPEL
100
AcDbCircle
 10
149.2478666490377
 20
453.8835808352254
 30
0.0
 40
12.4
100
AcDbArc
 50
180.0
 51
214.0620623799338
  0
ARC
  5
10A3
330
1E
100
AcDbEntity
  8
STEMPEL
  6
Continuous
100
AcDbCircle
 10
158.3478666490377
 20
495.8901029552373
 30
0.0
 40
25.0
100
AcDbArc
 50
155.000000000005
 51
180.0
  0
LINE
  5
10A4
330
1E
100
AcDbEntity
  8
STEMPEL
  6
Continuous
100
AcDbLine
 10
136.6411108111133
 20
508.4948544178094
 30
0.0
 11
135.6901719731214
 21
506.4555594987548
 31
0.0
  0
ARC
  5
10A5
330
1E
100
AcDbEntity
  8
STEMPEL
100
AcDbCircle
 10
132.3478666490377
 20
442.4577329454622
 30
0.0
 40
8.0
100
AcDbArc
 50
0.0
 51
34.06206237993377
  0
ARC
  5
10A6
330
1E
100
AcDbEntity
  8
STEMPEL
100
AcDbCircle
 10
237.3478666490377
 20
442.4577329454622
 30
0.0
 40
8.0
100
AcDbArc
 50
145.9379376200662
 51
180.0
  0
LINE
  5
10A7
330
1E
100
AcDbEntity
  8
STEMPEL
  6
Continuous
100
AcDbLine
 10
233.0546224869621
 20
508.4948544178094
 30
0.0
 11
234.005561324954
 21
506.4555594987548
 31
0.0
  0
ARC
  5
10A8
330
1E
100
AcDbEntity
  8
STEMPEL
  6
Continuous
100
AcDbCircle
 10
211.3478666490378
 20
495.8901029552373
 30
0.0
 40
25.0
100
AcDbArc
 50
0.0
 51
24.99999999999492
  0
ARC
  5
10A9
330
1E
100
AcDbEntity
  8
STEMPEL
100
AcDbCircle
 10
220.4478666490377
 20
453.8835808352254
 30
0.0
 40
12.4
100
AcDbArc
 50
325.9379376200663
 51
0.0
  0
LINE
  5
10AA
330
1E
100
AcDbEntity
  8
STEMPEL
100
AcDbLine
 10
232.8478666490378
 20
473.1547213546132
 30
0.0
 11
232.8478666490378
 21
453.8835808352254
 31
0.0
  0
ARC
  5
10AB
330
1E
100
AcDbEntity
  8
STEMPEL
100
AcDbCircle
 10
244.4478666490377
 20
473.1547213546132
 30
0.0
 40
11.6
100
AcDbArc
 50
154.692276901978
 51
180.0
  0
ARC
  5
10AC
330
1E
100
AcDbEntity
  8
STEMPEL
100
AcDbCircle
 10
210.9478666490377
 20
488.8629994270181
 30
0.0
 40
25.40009324312573
100
AcDbArc
 50
334.9670575584338
 51
0.1564859543473726
  0
LINE
  5
10AD
330
1E
100
AcDbEntity
  8
STEMPEL
100
AcDbLine
 10
236.3478666490378
 20
495.8901029552373
 30
0.0
 11
236.3478666490378
 21
488.9312794752072
 31
0.0
  0
LINE
  5
1180
330
1E
100
AcDbEntity
  8
STEMPEL
100
AcDbLine
 10
229.3478666490381
 20
417.9228290295649
 30
0.0
 11
184.8478666490382
 21
310.4903255039624
 31
0.0
  0
LINE
  5
1181
330
1E
100
AcDbEntity
  8
STEMPEL
100
AcDbLine
 10
184.8478666490382
 20
310.4903255039624
 30
0.0
 11
229.3478666490382
 21
292.0578219783595
 31
0.0
  0
ARC
  5
1198
330
1E
100
AcDbEntity
  8
SCHRAFF
100
AcDbCircle
 10
184.8478666490382
 20
310.4903255039624
 30
0.0
 40
5.0
100
AcDbArc
 50
300.6301023541549
 51
14.3698976458437
  0
ARC
  5
1199
330
1E
100
AcDbEntity
  8
SCHRAFF
100
AcDbCircle
 10
189.4672643115946
 20
308.5769083421369
 30
0.0
 40
5.0
100
AcDbArc
 50
300.6301023541549
 51
14.3698976458437
  0
ARC
  5
119A
330
1E
100
AcDbEntity
  8
SCHRAFF
100
AcDbCircle
 10
194.0866619741511
 20
306.6634911803114
 30
0.0
 40
5.0
100
AcDbArc
 50
300.6301023541549
 51
14.3698976458437
  0
ARC
  5
119B
330
1E
100
AcDbEntity
  8
SCHRAFF
100
AcDbCircle
 10
198.7060596367075
 20
304.750074018486
 30
0.0
 40
5.0
100
AcDbArc
 50
300.6301023541549
 51
14.3698976458437
  0
ARC
  5
119C
330
1E
100
AcDbEntity
  8
SCHRAFF
100
AcDbCircle
 10
203.3254572992639
 20
302.8366568566605
 30
0.0
 40
5.0
100
AcDbArc
 50
300.6301023541549
 51
14.3698976458437
  0
ARC
  5
119D
330
1E
100
AcDbEntity
  8
SCHRAFF
100
AcDbCircle
 10
207.9448549618204
 20
300.923239694835
 30
0.0
 40
5.0
100
AcDbArc
 50
300.6301023541549
 51
14.3698976458437
  0
ARC
  5
119E
330
1E
100
AcDbEntity
  8
SCHRAFF
100
AcDbCircle
 10
212.5642526243768
 20
299.0098225330096
 30
0.0
 40
5.0
100
AcDbArc
 50
300.6301023541549
 51
14.3698976458437
  0
ARC
  5
119F
330
1E
100
AcDbEntity
  8
SCHRAFF
100
AcDbCircle
 10
217.1836502869332
 20
297.0964053711842
 30
0.0
 40
5.0
100
AcDbArc
 50
300.6301023541549
 51
14.3698976458437
  0
ARC
  5
11A0
330
1E
100
AcDbEntity
  8
SCHRAFF
100
AcDbCircle
 10
221.8030479494896
 20
295.1829882093587
 30
0.0
 40
5.0
100
AcDbArc
 50
300.6301023541549
 51
14.3698976458437
  0
ARC
  5
11A1
102
{ACAD_REACTORS
330
11AB
102
}
330
1E
100
AcDbEntity
  8
SCHRAFF
100
AcDbCircle
 10
228.7360150189466
 20
292.3112592217035
 30
0.0
 40
3.553682555265574
100
AcDbArc
 50
279.9142423263106
 51
35.08575767368982
  0
HATCH
  5
11AB
330
1E
100
AcDbEntity
  8
SCHRAFF
100
AcDbHatch
 10
0.0
 20
0.0
 30
0.0
210
0.0
220
0.0
230
1.0
  2
_USER
 70
     0
 71
     1
 91
        1
 92
        7
 72
     1
 73
     1
 93
        3
 10
231.6439672432287
 20
294.35392257255
 42
0.0
 10
229.3478666490382
 20
292.0578219783595
 42
0.0
 10
229.3478666490382
 20
288.8106453774823
 42
0.5495928119996539
 97
        3
330
C94
330
CCF
330
11A1
 75
     0
 76
     0
 52
0.0
 41
0.1
 77
     0
 78
     1
 53
0.0
 43
0.0
 44
0.0
 45
0.0
 46
0.1
 79
     0
 47
0.1693584976892409
 98
        1
 10
230.5008186479545
 20
289.8566114003616
  0
ARC
  5
11AC
330
1E
100
AcDbEntity
  8
SCHRAFF
100
AcDbCircle
 10
184.8478666490382
 20
310.4903255039624
 30
0.0
 40
5.0
100
AcDbArc
 50
30.63010235415636
 51
104.3698976458436
  0
ARC
  5
11AD
330
1E
100
AcDbEntity
  8
SCHRAFF
100
AcDbCircle
 10
186.7612838108637
 20
315.1097231665188
 30
0.0
 40
5.0
100
AcDbArc
 50
30.63010235415636
 51
104.3698976458436
  0
ARC
  5
11AE
330
1E
100
AcDbEntity
  8
SCHRAFF
100
AcDbCircle
 10
188.6747009726891
 20
319.7291208290752
 30
0.0
 40
5.0
100
AcDbArc
 50
30.63010235415636
 51
104.3698976458436
  0
ARC
  5
11AF
330
1E
100
AcDbEntity
  8
SCHRAFF
100
AcDbCircle
 10
190.5881181345146
 20
324.3485184916317
 30
0.0
 40
5.0
100
AcDbArc
 50
30.63010235415636
 51
104.3698976458436
  0
ARC
  5
11B0
330
1E
100
AcDbEntity
  8
SCHRAFF
100
AcDbCircle
 10
192.50153529634
 20
328.9679161541881
 30
0.0
 40
5.0
100
AcDbArc
 50
30.63010235415636
 51
104.3698976458436
  0
ARC
  5
11B1
330
1E
100
AcDbEntity
  8
SCHRAFF
100
AcDbCircle
 10
194.4149524581654
 20
333.5873138167445
 30
0.0
 40
5.0
100
AcDbArc
 50
30.63010235415636
 51
104.3698976458436
  0
ARC
  5
11B2
330
1E
100
AcDbEntity
  8
SCHRAFF
100
AcDbCircle
 10
196.3283696199909
 20
338.2067114793009
 30
0.0
 40
5.0
100
AcDbArc
 50
30.63010235415636
 51
104.3698976458436
  0
ARC
  5
11B3
330
1E
100
AcDbEntity
  8
SCHRAFF
100
AcDbCircle
 10
198.2417867818163
 20
342.8261091418573
 30
0.0
 40
5.0
100
AcDbArc
 50
30.63010235415636
 51
104.3698976458436
  0
ARC
  5
11B4
330
1E
100
AcDbEntity
  8
SCHRAFF
100
AcDbCircle
 10
200.1552039436418
 20
347.4455068044138
 30
0.0
 40
5.0
100
AcDbArc
 50
30.63010235415636
 51
104.3698976458436
  0
ARC
  5
11B5
330
1E
100
AcDbEntity
  8
SCHRAFF
100
AcDbCircle
 10
202.0686211054672
 20
352.0649044669702
 30
0.0
 40
5.0
100
AcDbArc
 50
30.63010235415636
 51
104.3698976458436
  0
ARC
  5
11B6
330
1E
100
AcDbEntity
  8
SCHRAFF
100
AcDbCircle
 10
203.9820382672927
 20
356.6843021295266
 30
0.0
 40
5.0
100
AcDbArc
 50
30.63010235415636
 51
104.3698976458436
  0
ARC
  5
11B7
330
1E
100
AcDbEntity
  8
SCHRAFF
100
AcDbCircle
 10
205.8954554291181
 20
361.303699792083
 30
0.0
 40
5.0
100
AcDbArc
 50
30.63010235415636
 51
104.3698976458436
  0
ARC
  5
11B8
330
1E
100
AcDbEntity
  8
SCHRAFF
100
AcDbCircle
 10
207.8088725909435
 20
365.9230974546395
 30
0.0
 40
5.0
100
AcDbArc
 50
30.63010235415636
 51
104.3698976458436
  0
ARC
  5
11B9
330
1E
100
AcDbEntity
  8
SCHRAFF
100
AcDbCircle
 10
209.722289752769
 20
370.5424951171959
 30
0.0
 40
5.0
100
AcDbArc
 50
30.63010235415636
 51
104.3698976458436
  0
ARC
  5
11BA
330
1E
100
AcDbEntity
  8
SCHRAFF
100
AcDbCircle
 10
211.6357069145944
 20
375.1618927797523
 30
0.0
 40
5.0
100
AcDbArc
 50
30.63010235415636
 51
104.3698976458436
  0
ARC
  5
11BB
330
1E
100
AcDbEntity
  8
SCHRAFF
100
AcDbCircle
 10
213.5491240764199
 20
379.7812904423087
 30
0.0
 40
5.0
100
AcDbArc
 50
30.63010235415636
 51
104.3698976458436
  0
ARC
  5
11BC
330
1E
100
AcDbEntity
  8
SCHRAFF
100
AcDbCircle
 10
215.4625412382453
 20
384.4006881048652
 30
0.0
 40
5.0
100
AcDbArc
 50
30.63010235415636
 51
104.3698976458436
  0
ARC
  5
11BD
330
1E
100
AcDbEntity
  8
SCHRAFF
100
AcDbCircle
 10
217.3759584000708
 20
389.0200857674216
 30
0.0
 40
5.0
100
AcDbArc
 50
30.63010235415636
 51
104.3698976458436
  0
ARC
  5
11BE
330
1E
100
AcDbEntity
  8
SCHRAFF
100
AcDbCircle
 10
219.2893755618962
 20
393.639483429978
 30
0.0
 40
5.0
100
AcDbArc
 50
30.63010235415636
 51
104.3698976458436
  0
ARC
  5
11BF
330
1E
100
AcDbEntity
  8
SCHRAFF
100
AcDbCircle
 10
221.2027927237216
 20
398.2588810925344
 30
0.0
 40
5.0
100
AcDbArc
 50
30.63010235415636
 51
104.3698976458436
  0
ARC
  5
11C0
330
1E
100
AcDbEntity
  8
SCHRAFF
100
AcDbCircle
 10
223.116209885547
 20
402.8782787550908
 30
0.0
 40
5.0
100
AcDbArc
 50
30.63010235415636
 51
104.3698976458436
  0
ARC
  5
11C1
330
1E
100
AcDbEntity
  8
SCHRAFF
100
AcDbCircle
 10
225.0296270473725
 20
407.4976764176472
 30
0.0
 40
5.0
100
AcDbArc
 50
30.63010235415636
 51
104.3698976458436
  0
ARC
  5
11C2
330
1E
100
AcDbEntity
  8
SCHRAFF
100
AcDbCircle
 10
226.943044209198
 20
412.1170740802036
 30
0.0
 40
5.0
100
AcDbArc
 50
30.63010235415636
 51
104.3698976458436
  0
ARC
  5
11C3
102
{ACAD_REACTORS
330
11C7
102
}
330
1E
100
AcDbEntity
  8
SCHRAFF
100
AcDbCircle
 10
229.6756048854215
 20
418.7140591247499
 30
0.0
 40
7.055763478820474
100
AcDbArc
 50
42.3376691477482
 51
92.66233085225216
  0
HATCH
  5
11C7
330
1E
100
AcDbEntity
  8
SCHRAFF
100
AcDbHatch
 10
0.0
 20
0.0
 30
0.0
210
0.0
220
0.0
230
1.0
  2
_USER
 70
     0
 71
     1
 91
        1
 92
        7
 72
     1
 73
     1
 93
        3
 10
234.8911438441057
 20
423.4661062246326
 42
0.2231813584553751
 10
229.347866649038
 20
425.762206818823
 42
0.0
 10
229.3478666490381
 20
417.9228290295649
 42
0.0
 97
        3
330
11C3
330
1099
330
CAA
 75
     0
 76
     0
 52
0.0
 41
0.1
 77
     0
 78
     1
 53
0.0
 43
0.0
 44
0.0
 45
0.0
 46
0.1
 79
     0
 47
0.0801979059973375
 98
        1
 10
232.4985421855085
 20
423.0310913044375
  0
TEXT
  5
11CD
330
1E
100
AcDbEntity
  8
BEM
100
AcDbText
 10
417.3022923857165
 20
10.16790107998861
 30
0.0
 40
4.0
  1
Diese Zeichnung ist urheberrechtlich geschützt und bleibt unser Eigentum. Sie darf weder ganz noch teilweise verfielfältigt und nicht an Dritte weitergegeben werden.
 50
90.0
 41
0.8
  7
GREEKS
100
AcDbText
  0
ENDSEC
  0
SECTION
  2
OBJECTS
  0
DICTIONARY
  5
C
330
0
100
AcDbDictionary
281
     1
  3
ACAD_COLOR
350
DF
  3
ACAD_GROUP
350
D
  3
ACAD_LAYOUT
350
19
  3
ACAD_MATERIAL
350
DE
  3
ACAD_MLINESTYLE
350
16
  3
ACAD_PLOTSETTINGS
350
18
  3
ACAD_PLOTSTYLENAME
350
E
  3
AcDbVariableDictionary
350
24C
  0
DICTIONARY
  5
A0
330
1E
100
AcDbDictionary
280
     1
281
     1
  3
ACAD_LAYOUTSELFREF
360
D4
  0
DICTIONARY
  5
A2
330
1A
100
AcDbDictionary
280
     1
281
     1
  3
ACAD_LAYOUTSELFREF
360
D3
  0
DICTIONARY
  5
DF
102
{ACAD_REACTORS
330
C
102
}
330
C
100
AcDbDictionary
281
     1
  0
DICTIONARY
  5
D
102
{ACAD_REACTORS
330
C
102
}
330
C
100
AcDbDictionary
281
     1
  0
DICTIONARY
  5
19
102
{ACAD_REACTORS
330
C
102
}
330
C
100
AcDbDictionary
281
     1
  3
Layout1
350
1D
  3
Model
350
21
  0
DICTIONARY
  5
DE
102
{ACAD_REACTORS
330
C
102
}
330
C
100
AcDbDictionary
281
     1
  0
DICTIONARY
  5
16
102
{ACAD_REACTORS
330
C
102
}
330
C
100
AcDbDictionary
281
     1
  3
Standard
350
17
  0
DICTIONARY
  5
18
102
{ACAD_REACTORS
330
C
102
}
330
C
100
AcDbDictionary
281
     1
  0
ACDBDICTIONARYWDFLT
  5
E
102
{ACAD_REACTORS
330
C
102
}
330
C
100
AcDbDictionary
281
     1
  3
Normal
350
F
100
AcDbDictionaryWithDefault
340
F
  0
DICTIONARY
  5
24C
102
{ACAD_REACTORS
330
C
102
}
330
C
100
AcDbDictionary
281
     1
  3
DIMASSOC
350
24D
  3
PROJECTNAME
350
24E
  0
XRECORD
  5
D4
102
{ACAD_REACTORS
330
A0
102
}
330
A0
100
AcDbXrecord
280
     1
340
1E
  0
XRECORD
  5
D3
102
{ACAD_REACTORS
330
A2
102
}
330
A2
100
AcDbXrecord
280
     1
340
1A
  0
LAYOUT
  5
1D
102
{ACAD_REACTORS
330
19
102
}
330
19
100
AcDbPlotSettings
  1

  2
\\NT_WORK01\HP LaserJet 5000 PCL 6
  4

  6

 40
0.0
 41
0.0
 42
0.0
 43
0.0
 44
0.0
 45
0.0
 46
0.0
 47
0.0
 48
0.0
 49
0.0
140
0.0
141
0.0
142
1.0
143
1.0
 70
   688
 72
     0
 73
     0
 74
     5
  7
monochrome1.ctb
 75
    16
147
1.0
 76
     0
 77
     2
 78
   300
148
0.0
149
0.0
100
AcDbLayout
  1
Layout1
 70
     0
 71
     1
 10
0.0
 20
0.0
 11
12.0
 21
9.0
 12
0.0
 22
0.0
 32
0.0
 14
1.000000000000000E+20
 24
1.000000000000000E+20
 34
1.000000000000000E+20
 15
-1.000000000000000E+20
 25
-1.000000000000000E+20
 35
-1.000000000000000E+20
146
0.0
 13
0.0
 23
0.0
 33
0.0
 16
1.0
 26
0.0
 36
0.0
 17
0.0
 27
1.0
 37
0.0
 76
     0
330
1A
  0
LAYOUT
  5
21
102
{ACAD_REACTORS
330
19
102
}
330
19
100
AcDbPlotSettings
  1

  2
RICOH Aficio 2027 PCL 6
  4
A4
  6

 40
5.027083396911621
 41
5.027085304260253
 42
5.027084350585937
 43
5.027069091796875
 44
209.9733276367187
 45
296.9259948730469
 46
0.0
 47
2.06
 48
0.0
 49
0.0
140
0.0
141
0.0
142
1.0
143
2.100849164395896
 70
 11956
 72
     1
 73
     0
 74
     2
  7
monochrome1.ctb
 75
     0
147
0.4759979997362411
 76
     0
 77
     2
 78
   300
148
0.0
149
0.0
100
AcDbLayout
  1
Model
 70
     1
 71
     0
 10
0.0
 20
0.0
 11
12.0
 21
9.0
 12
0.0
 22
0.0
 32
0.0
 14
0.0
 24
0.0
 34
0.0
 15
0.0
 25
0.0
 35
0.0
146
0.0
 13
0.0
 23
0.0
 33
0.0
 16
1.0
 26
0.0
 36
0.0
 17
0.0
 27
1.0
 37
0.0
 76
     0
330
1E
  0
MLINESTYLE
  5
17
102
{ACAD_REACTORS
330
16
102
}
330
16
100
AcDbMlineStyle
  2
STANDARD
 70
     0
  3

 62
   256
 51
90.0
 52
90.0
 71
     2
 49
0.5
 62
   256
  6
BYLAYER
 49
-0.5
 62
   256
  6
BYLAYER
  0
ACDBPLACEHOLDER
  5
F
102
{ACAD_REACTORS
330
E
102
}
330
E
  0
DICTIONARYVAR
  5
24D
102
{ACAD_REACTORS
330
24C
102
}
330
24C
100
DictionaryVariables
280
     0
  1
1
  0
DICTIONARYVAR
  5
24E
102
{ACAD_REACTORS
330
24C
102
}
330
24C
100
DictionaryVariables
280
     0
  1

  0
ENDSEC
  0
EOF
