  0
SECTION
  2
HEADER
  9
$ACADVER
  1
AC1018
  9
$ACADMAINTVER
 70
     2
  9
$DWGCODEPAGE
  3
ANSI_1252
  9
$INSBASE
 10
0.0
 20
0.0
 30
0.0
  9
$EXTMIN
 10
-0.0128011487113327
 20
-0.0181044817486509
 30
-0.0000000000000053
  9
$EXTMAX
 10
420.0064130434209
 20
594.0090698756964
 30
0.0000000000000099
  9
$LIMMIN
 10
0.0
 20
0.0
  9
$LIMMAX
 10
419.9999999999999
 20
594.0000000000002
  9
$ORTHOMODE
 70
     0
  9
$REGENMODE
 70
     1
  9
$FILLMODE
 70
     1
  9
$QTEXTMODE
 70
     0
  9
$MIRRTEXT
 70
     1
  9
$LTSCALE
 40
20.0
  9
$ATTMODE
 70
     1
  9
$TEXTSIZE
 40
3.5
  9
$TRACEWID
 40
0.5
  9
$TEXTSTYLE
  7
STANDARD
  9
$CLAYER
  8
VOLL
  9
$CELTYPE
  6
ByLayer
  9
$CECOLOR
 62
   256
  9
$CELTSCALE
 40
1.0
  9
$DISPSILH
 70
     0
  9
$DIMSCALE
 40
2.0
  9
$DIMASZ
 40
3.5
  9
$DIMEXO
 40
1.0
  9
$DIMDLI
 40
7.0
  9
$DIMRND
 40
0.0
  9
$DIMDLE
 40
0.0
  9
$DIMEXE
 40
1.0
  9
$DIMTP
 40
0.0
  9
$DIMTM
 40
0.0
  9
$DIMTXT
 40
3.5
  9
$DIMCEN
 40
1.5
  9
$DIMTSZ
 40
0.0
  9
$DIMTOL
 70
     0
  9
$DIMLIM
 70
     0
  9
$DIMTIH
 70
     0
  9
$DIMTOH
 70
     0
  9
$DIMSE1
 70
     0
  9
$DIMSE2
 70
     0
  9
$DIMTAD
 70
     1
  9
$DIMZIN
 70
     8
  9
$DIMBLK
  1

  9
$DIMASO
 70
     1
  9
$DIMSHO
 70
     0
  9
$DIMPOST
  1

  9
$DIMAPOST
  1

  9
$DIMALT
 70
     0
  9
$DIMALTD
 70
     2
  9
$DIMALTF
 40
25.4
  9
$DIMLFAC
 40
1.0
  9
$DIMTOFL
 70
     1
  9
$DIMTVP
 40
0.0
  9
$DIMTIX
 70
     0
  9
$DIMSOXD
 70
     0
  9
$DIMSAH
 70
     0
  9
$DIMBLK1
  1

  9
$DIMBLK2
  1

  9
$DIMSTYLE
  2
Standard
  9
$DIMCLRD
 70
     0
  9
$DIMCLRE
 70
     0
  9
$DIMCLRT
 70
     1
  9
$DIMTFAC
 40
0.5142857142857144
  9
$DIMGAP
 40
1.5
  9
$DIMJUST
 70
     0
  9
$DIMSD1
 70
     0
  9
$DIMSD2
 70
     0
  9
$DIMTOLJ
 70
     1
  9
$DIMTZIN
 70
     8
  9
$DIMALTZ
 70
     8
  9
$DIMALTTZ
 70
     8
  9
$DIMUPT
 70
     0
  9
$DIMDEC
 70
     2
  9
$DIMTDEC
 70
     2
  9
$DIMALTU
 70
     2
  9
$DIMALTTD
 70
     2
  9
$DIMTXSTY
  7
STANDARD
  9
$DIMAUNIT
 70
     0
  9
$DIMADEC
 70
     2
  9
$DIMALTRND
 40
0.0
  9
$DIMAZIN
 70
     2
  9
$DIMDSEP
 70
    46
  9
$DIMATFIT
 70
     3
  9
$DIMFRAC
 70
     0
  9
$DIMLDRBLK
  1

  9
$DIMLUNIT
 70
     2
  9
$DIMLWD
 70
    -2
  9
$DIMLWE
 70
    -2
  9
$DIMTMOVE
 70
     0
  9
$LUNITS
 70
     2
  9
$LUPREC
 70
     2
  9
$SKETCHINC
 40
1.0
  9
$FILLETRAD
 40
0.0
  9
$AUNITS
 70
     0
  9
$AUPREC
 70
     0
  9
$MENU
  1
ACAD
  9
$ELEVATION
 40
0.0
  9
$PELEVATION
 40
0.0
  9
$THICKNESS
 40
0.0
  9
$LIMCHECK
 70
     0
  9
$CHAMFERA
 40
0.0
  9
$CHAMFERB
 40
0.0
  9
$CHAMFERC
 40
0.0
  9
$CHAMFERD
 40
0.0
  9
$SKPOLY
 70
     0
  9
$TDCREATE
 40
2455397.864709028
  9
$TDUCREATE
 40
2455397.781375695
  9
$TDUPDATE
 40
2455447.614038542
  9
$TDUUPDATE
 40
2455447.530705209
  9
$TDINDWG
 40
0.1455826505
  9
$TDUSRTIMER
 40
0.1455826505
  9
$USRTIMER
 70
     1
  9
$ANGBASE
 50
0.0
  9
$ANGDIR
 70
     0
  9
$PDMODE
 70
     0
  9
$PDSIZE
 40
0.0
  9
$PLINEWID
 40
0.0
  9
$SPLFRAME
 70
     0
  9
$SPLINETYPE
 70
     6
  9
$SPLINESEGS
 70
     8
  9
$HANDSEED
  5
794
  9
$SURFTAB1
 70
     6
  9
$SURFTAB2
 70
     6
  9
$SURFTYPE
 70
     6
  9
$SURFU
 70
     6
  9
$SURFV
 70
     6
  9
$UCSBASE
  2

  9
$UCSNAME
  2

  9
$UCSORG
 10
0.0
 20
0.0
 30
0.0
  9
$UCSXDIR
 10
1.0
 20
0.0
 30
0.0
  9
$UCSYDIR
 10
0.0
 20
1.0
 30
0.0
  9
$UCSORTHOREF
  2

  9
$UCSORTHOVIEW
 70
     0
  9
$UCSORGTOP
 10
0.0
 20
0.0
 30
0.0
  9
$UCSORGBOTTOM
 10
0.0
 20
0.0
 30
0.0
  9
$UCSORGLEFT
 10
0.0
 20
0.0
 30
0.0
  9
$UCSORGRIGHT
 10
0.0
 20
0.0
 30
0.0
  9
$UCSORGFRONT
 10
0.0
 20
0.0
 30
0.0
  9
$UCSORGBACK
 10
0.0
 20
0.0
 30
0.0
  9
$PUCSBASE
  2

  9
$PUCSNAME
  2

  9
$PUCSORG
 10
0.0
 20
0.0
 30
0.0
  9
$PUCSXDIR
 10
1.0
 20
0.0
 30
0.0
  9
$PUCSYDIR
 10
0.0
 20
1.0
 30
0.0
  9
$PUCSORTHOREF
  2

  9
$PUCSORTHOVIEW
 70
     0
  9
$PUCSORGTOP
 10
0.0
 20
0.0
 30
0.0
  9
$PUCSORGBOTTOM
 10
0.0
 20
0.0
 30
0.0
  9
$PUCSORGLEFT
 10
0.0
 20
0.0
 30
0.0
  9
$PUCSORGRIGHT
 10
0.0
 20
0.0
 30
0.0
  9
$PUCSORGFRONT
 10
0.0
 20
0.0
 30
0.0
  9
$PUCSORGBACK
 10
0.0
 20
0.0
 30
0.0
  9
$USERI1
 70
     0
  9
$USERI2
 70
     0
  9
$USERI3
 70
     0
  9
$USERI4
 70
     0
  9
$USERI5
 70
     0
  9
$USERR1
 40
0.0
  9
$USERR2
 40
0.0
  9
$USERR3
 40
0.0
  9
$USERR4
 40
0.0
  9
$USERR5
 40
0.0
  9
$WORLDVIEW
 70
     1
  9
$SHADEDGE
 70
     3
  9
$SHADEDIF
 70
    70
  9
$TILEMODE
 70
     1
  9
$MAXACTVP
 70
    16
  9
$PINSBASE
 10
0.0
 20
0.0
 30
0.0
  9
$PLIMCHECK
 70
     0
  9
$PEXTMIN
 10
1.000000000000000E+20
 20
1.000000000000000E+20
 30
1.000000000000000E+20
  9
$PEXTMAX
 10
-1.000000000000000E+20
 20
-1.000000000000000E+20
 30
-1.000000000000000E+20
  9
$PLIMMIN
 10
0.0
 20
0.0
  9
$PLIMMAX
 10
12.0
 20
9.0
  9
$UNITMODE
 70
     0
  9
$VISRETAIN
 70
     0
  9
$PLINEGEN
 70
     0
  9
$PSLTSCALE
 70
     0
  9
$TREEDEPTH
 70
  3020
  9
$CMLSTYLE
  2
Standard
  9
$CMLJUST
 70
     0
  9
$CMLSCALE
 40
1.0
  9
$PROXYGRAPHICS
 70
     1
  9
$MEASUREMENT
 70
     0
  9
$CELWEIGHT
370
    -1
  9
$ENDCAPS
280
     0
  9
$JOINSTYLE
280
     0
  9
$LWDISPLAY
290
     0
  9
$INSUNITS
 70
     0
  9
$HYPERLINKBASE
  1

  9
$STYLESHEET
  1
monochrome 1.ctb
  9
$XEDIT
290
     1
  9
$CEPSNTYPE
380
     0
  9
$PSTYLEMODE
290
     1
  9
$FINGERPRINTGUID
  2
{D68B0D02-A558-11D7-B632-000102183313}
  9
$VERSIONGUID
  2
{C170C48E-D7EB-4AC9-B05F-913A952DD65A}
  9
$EXTNAMES
290
     1
  9
$PSVPSCALE
 40
0.0
  9
$OLESTARTUP
290
     0
  9
$SORTENTS
280
   127
  9
$INDEXCTL
280
     0
  9
$HIDETEXT
280
     0
  9
$XCLIPFRAME
290
     0
  9
$HALOGAP
280
     0
  9
$OBSCOLOR
 70
   257
  9
$OBSLTYPE
280
     0
  9
$INTERSECTIONDISPLAY
280
     0
  9
$INTERSECTIONCOLOR
 70
   257
  9
$DIMASSOC
280
     1
  9
$PROJECTNAME
  1

  0
ENDSEC
  0
SECTION
  2
CLASSES
  0
CLASS
  1
ACDBDICTIONARYWDFLT
  2
AcDbDictionaryWithDefault
  3
ObjectDBX Classes
 90
        0
 91
        1
280
     0
281
     0
  0
CLASS
  1
DICTIONARYVAR
  2
AcDbDictionaryVar
  3
ObjectDBX Classes
 90
        0
 91
        2
280
     0
281
     0
  0
ENDSEC
  0
SECTION
  2
TABLES
  0
TABLE
  2
VPORT
  5
8
330
0
100
AcDbSymbolTable
 70
     2
  0
VPORT
  5
793
330
8
100
AcDbSymbolTableRecord
100
AcDbViewportTableRecord
  2
*Active
 70
     0
 10
0.0
 20
0.0
 11
1.0
 21
1.0
 12
209.9968059473548
 22
296.9954826969738
 13
0.0
 23
0.0
 14
1.0
 24
1.0
 15
10.0
 25
10.0
 16
0.0
 26
0.0
 36
1.0
 17
0.0
 27
0.0
 37
0.0
 40
598.8241636523907
 41
1.336927223719676
 42
50.0
 43
0.0
 44
0.0
 50
0.0
 51
0.0
 71
     0
 72
  1500
 73
     1
 74
     0
 75
     0
 76
     0
 77
     0
 78
     0
281
     0
 65
     1
110
0.0
120
0.0
130
0.0
111
1.0
121
0.0
131
0.0
112
0.0
122
1.0
132
0.0
 79
     0
146
0.0
  0
ENDTAB
  0
TABLE
  2
LTYPE
  5
5
330
0
100
AcDbSymbolTable
 70
     2
  0
LTYPE
  5
13
330
5
100
AcDbSymbolTableRecord
100
AcDbLinetypeTableRecord
  2
ByBlock
 70
     0
  3

 72
    65
 73
     0
 40
0.0
  0
LTYPE
  5
14
330
5
100
AcDbSymbolTableRecord
100
AcDbLinetypeTableRecord
  2
ByLayer
 70
     0
  3

 72
    65
 73
     0
 40
0.0
  0
LTYPE
  5
15
330
5
100
AcDbSymbolTableRecord
100
AcDbLinetypeTableRecord
  2
Continuous
 70
     0
  3
Solid line
 72
    65
 73
     0
 40
0.0
  0
LTYPE
  5
25
330
5
100
AcDbSymbolTableRecord
100
AcDbLinetypeTableRecord
  2
STRICHPUNKT
 70
     0
  3
__ . __ . __ . __ . __ . __ . __ . __ . __ . __
 72
    65
 73
     4
 40
1.0
 49
0.5
 74
     0
 49
-0.25
 74
     0
 49
0.0
 74
     0
 49
-0.25
 74
     0
  0
ENDTAB
  0
TABLE
  2
LAYER
  5
2
330
0
100
AcDbSymbolTable
 70
     9
  0
LAYER
  5
10
330
2
100
AcDbSymbolTableRecord
100
AcDbLayerTableRecord
  2
0
 70
     0
 62
     7
  6
Continuous
370
    -3
390
F
  0
LAYER
  5
2A
330
2
100
AcDbSymbolTableRecord
100
AcDbLayerTableRecord
  2
VOLL
 70
     0
 62
     1
  6
Continuous
370
    -3
390
F
  0
LAYER
  5
2B
330
2
100
AcDbSymbolTableRecord
100
AcDbLayerTableRecord
  2
HILF
 70
     0
 62
     2
  6
Continuous
370
    -3
390
F
  0
LAYER
  5
2C
330
2
100
AcDbSymbolTableRecord
100
AcDbLayerTableRecord
  2
MITTEL
 70
     0
 62
     2
  6
STRICHPUNKT
370
    -3
390
F
  0
LAYER
  5
2F
330
2
100
AcDbSymbolTableRecord
100
AcDbLayerTableRecord
  2
BEM
 70
     0
 62
     7
  6
Continuous
370
    -3
390
F
  0
LAYER
  5
30
330
2
100
AcDbSymbolTableRecord
100
AcDbLayerTableRecord
  2
STEMPEL
 70
     0
 62
     3
  6
Continuous
370
    -3
390
F
  0
LAYER
  5
31
330
2
100
AcDbSymbolTableRecord
100
AcDbLayerTableRecord
  2
TEXT
 70
     0
 62
     7
  6
Continuous
370
    -3
390
F
  0
LAYER
  5
14D
330
2
100
AcDbSymbolTableRecord
100
AcDbLayerTableRecord
  2
Defpoints
 70
     0
 62
     7
  6
Continuous
290
     0
370
    -3
390
F
  0
LAYER
  5
76B
330
2
100
AcDbSymbolTableRecord
100
AcDbLayerTableRecord
  2
SCHRAFF
 70
     0
 62
     7
  6
Continuous
370
    -3
390
F
  0
ENDTAB
  0
TABLE
  2
STYLE
  5
3
330
0
100
AcDbSymbolTable
 70
     2
  0
STYLE
  5
11
330
3
100
AcDbSymbolTableRecord
100
AcDbTextStyleTableRecord
  2
STANDARD
 70
     0
 40
0.0
 41
0.8
 50
0.0
 71
     0
 42
3.5
  3
simplex.shx
  4

  0
STYLE
  5
24
330
3
100
AcDbSymbolTableRecord
100
AcDbTextStyleTableRecord
  2
GREEKS
 70
     0
 40
0.0
 41
0.8
 50
0.0
 71
     0
 42
2.5
  3
SIMPLEX.shx
  4

  0
ENDTAB
  0
TABLE
  2
VIEW
  5
6
330
0
100
AcDbSymbolTable
 70
     0
  0
ENDTAB
  0
TABLE
  2
UCS
  5
7
330
0
100
AcDbSymbolTable
 70
     0
  0
ENDTAB
  0
TABLE
  2
APPID
  5
9
330
0
100
AcDbSymbolTable
 70
     1
  0
APPID
  5
12
330
9
100
AcDbSymbolTableRecord
100
AcDbRegAppTableRecord
  2
ACAD
 70
     0
  0
ENDTAB
  0
TABLE
  2
DIMSTYLE
  5
A
330
0
100
AcDbSymbolTable
 70
     1
100
AcDbDimStyleTable
 71
     1
340
9D
  0
DIMSTYLE
105
9D
102
{ACAD_REACTORS
330
2E7
330
2F4
330
754
102
}
330
A
100
AcDbSymbolTableRecord
100
AcDbDimStyleTableRecord
  2
Standard
 70
     0
340
11
  0
ENDTAB
  0
TABLE
  2
BLOCK_RECORD
  5
1
330
0
100
AcDbSymbolTable
 70
     5
  0
BLOCK_RECORD
  5
1E
102
{ACAD_XDICTIONARY
360
A0
102
}
330
1
100
AcDbSymbolTableRecord
100
AcDbBlockTableRecord
  2
*Model_Space
340
21
  0
BLOCK_RECORD
  5
1A
102
{ACAD_XDICTIONARY
360
A2
102
}
330
1
100
AcDbSymbolTableRecord
100
AcDbBlockTableRecord
  2
*Paper_Space
340
1D
  0
BLOCK_RECORD
  5
22
330
1
100
AcDbSymbolTableRecord
100
AcDbBlockTableRecord
  2
LOGO
340
0
102
{BLKREFS
331
9B
102
}
  0
BLOCK_RECORD
  5
2E8
330
1
100
AcDbSymbolTableRecord
100
AcDbBlockTableRecord
  2
*D1
340
0
  0
BLOCK_RECORD
  5
2F5
330
1
100
AcDbSymbolTableRecord
100
AcDbBlockTableRecord
  2
*D2
340
0
  0
BLOCK_RECORD
  5
60F
102
{ACAD_XDICTIONARY
360
612
102
}
330
1
100
AcDbSymbolTableRecord
100
AcDbBlockTableRecord
  2
INDEX EN10305
340
0
102
{BLKREFS
331
615
102
}
1001
ACAD
1000
DesignCenter Data
1002
{
1070
     1
1070
     4
1002
}
  0
BLOCK_RECORD
  5
755
330
1
100
AcDbSymbolTableRecord
100
AcDbBlockTableRecord
  2
*D4
340
0
  0
ENDTAB
  0
ENDSEC
  0
SECTION
  2
BLOCKS
  0
BLOCK
  5
35
330
1E
100
AcDbEntity
  8
0
100
AcDbBlockBegin
  2
*Model_Space
 70
     0
 10
0.0
 20
0.0
 30
0.0
  3
*Model_Space
  1

  0
ENDBLK
  5
36
330
1E
100
AcDbEntity
  8
0
100
AcDbBlockEnd
  0
BLOCK
  5
33
330
1A
100
AcDbEntity
 67
     1
  8
0
100
AcDbBlockBegin
  2
*Paper_Space
 70
     0
 10
0.0
 20
0.0
 30
0.0
  3
*Paper_Space
  1

  0
ENDBLK
  5
34
330
1A
100
AcDbEntity
 67
     1
  8
0
100
AcDbBlockEnd
  0
BLOCK
  5
37
330
22
100
AcDbEntity
  8
0
100
AcDbBlockBegin
  2
LOGO
 70
     0
 10
0.0
 20
0.0
 30
0.0
  3
LOGO
  1

  0
ARC
  5
38
330
22
100
AcDbEntity
  8
0
100
AcDbCircle
 10
11.59973089678112
 20
-9.271599258481501
 30
0.0
 40
4.5
100
AcDbArc
 50
270.0
 51
231.0575587310159
  0
LINE
  5
39
330
22
100
AcDbEntity
  8
0
100
AcDbLine
 10
3.599730896781125
 20
-4.771599258481529
 30
0.0
 11
3.599730896781153
 21
-11.77159925848133
 31
0.0
  0
LINE
  5
3A
330
22
100
AcDbEntity
  8
0
100
AcDbLine
 10
2.599730896781125
 20
-4.771599258481529
 30
0.0
 11
2.599730896781153
 21
-11.77159925848133
 31
0.0
  0
CIRCLE
  5
3B
330
22
100
AcDbEntity
  8
0
100
AcDbCircle
 10
11.59973089678112
 20
-9.271599258481501
 30
0.0
 40
3.5
  0
ARC
  5
3C
330
22
100
AcDbEntity
  8
0
100
AcDbCircle
 10
31.59973089678115
 20
-9.271599258481472
 30
0.0
 40
4.5
100
AcDbArc
 50
270.0
 51
231.0575587310182
  0
LINE
  5
3D
330
22
100
AcDbEntity
  8
0
100
AcDbLine
 10
17.59973089678112
 20
-4.771599258481472
 30
0.0
 11
17.59973089678115
 21
-13.77159925848147
 31
0.0
  0
ARC
  5
3E
330
22
100
AcDbEntity
  8
0
100
AcDbCircle
 10
22.59973089678116
 20
-7.271599258481472
 30
0.0
 40
2.5
100
AcDbArc
 50
293.1161887722295
 51
90.0
  0
CIRCLE
  5
3F
330
22
100
AcDbEntity
  8
0
100
AcDbCircle
 10
31.59973089678115
 20
-9.271599258481472
 30
0.0
 40
3.5
  0
ARC
  5
40
330
22
100
AcDbEntity
  8
0
100
AcDbCircle
 10
4.599730896781153
 20
-11.77159925848133
 30
0.0
 40
1.0
100
AcDbArc
 50
180.0
 51
270.0
  0
ARC
  5
41
330
22
100
AcDbEntity
  8
0
100
AcDbCircle
 10
4.599730896781153
 20
-11.77159925848133
 30
0.0
 40
2.0
100
AcDbArc
 50
179.9999999999992
 51
270.0
  0
LINE
  5
42
330
22
100
AcDbEntity
  8
0
100
AcDbLine
 10
11.59973089678115
 20
-13.77159925848144
 30
0.0
 11
4.599730896781153
 21
-13.77159925848147
 31
0.0
  0
LINE
  5
43
330
22
100
AcDbEntity
  8
0
100
AcDbLine
 10
8.771303772034769
 20
-12.77159925848136
 30
0.0
 11
4.599730896781153
 21
-12.77159925848133
 31
0.0
  0
LINE
  5
44
330
22
100
AcDbEntity
  8
0
100
AcDbLine
 10
31.59973089678115
 20
-13.77159925848147
 30
0.0
 11
23.6715276665056
 21
-13.77159925848144
 31
0.0
  0
LINE
  5
45
330
22
100
AcDbEntity
  8
0
100
AcDbLine
 10
23.56565672307022
 20
-9.51278021337896
 30
0.0
 11
24.4388546544846
 21
-12.77159925848144
 31
0.0
  0
LINE
  5
46
330
22
100
AcDbEntity
  8
0
100
AcDbLine
 10
22.59973089678116
 20
-9.771599258481472
 30
0.0
 11
18.59973089678112
 21
-9.771599258481472
 31
0.0
  0
LINE
  5
47
330
22
100
AcDbEntity
  8
0
100
AcDbLine
 10
18.59973089678115
 20
-13.77159925848144
 30
0.0
 11
17.59973089678115
 21
-13.77159925848144
 31
0.0
  0
LINE
  5
48
330
22
100
AcDbEntity
  8
0
100
AcDbLine
 10
18.59973089678115
 20
-9.771599258481472
 30
0.0
 11
18.59973089678115
 21
-13.77159925848144
 31
0.0
  0
LINE
  5
49
330
22
100
AcDbEntity
  8
0
100
AcDbLine
 10
22.59973089678116
 20
-9.771599258481472
 30
0.0
 11
23.67152766650562
 21
-13.77159925848147
 31
0.0
  0
ARC
  5
4A
330
22
100
AcDbEntity
  8
0
100
AcDbCircle
 10
22.59973089678116
 20
-7.271599258481472
 30
0.0
 40
2.5
100
AcDbArc
 50
270.0
 51
270.0000000000007
  0
LINE
  5
4B
330
22
100
AcDbEntity
  8
0
100
AcDbLine
 10
28.77130377203494
 20
-12.77159925848147
 30
0.0
 11
24.43885465448463
 21
-12.77159925848144
 31
0.0
  0
LINE
  5
4C
330
22
100
AcDbEntity
  8
0
100
AcDbLine
 10
3.599730896781125
 20
-4.771599258481472
 30
0.0
 11
2.599730896781125
 21
-4.771599258481472
 31
0.0
  0
LINE
  5
4D
330
22
100
AcDbEntity
  8
0
100
AcDbLine
 10
22.59973089678116
 20
-8.771599258481472
 30
0.0
 11
18.59973089678115
 21
-8.771599258481472
 31
0.0
  0
LINE
  5
4E
330
22
100
AcDbEntity
  8
0
100
AcDbLine
 10
22.59973089678116
 20
-5.771599258481472
 30
0.0
 11
18.59973089678115
 21
-5.771599258481472
 31
0.0
  0
LINE
  5
4F
330
22
100
AcDbEntity
  8
0
100
AcDbLine
 10
22.59973089678116
 20
-4.771599258481472
 30
0.0
 11
17.59973089678115
 21
-4.771599258481472
 31
0.0
  0
LINE
  5
50
330
22
100
AcDbEntity
  8
0
100
AcDbLine
 10
18.59973089678115
 20
-5.771599258481472
 30
0.0
 11
18.59973089678115
 21
-8.771599258481472
 31
0.0
  0
ARC
  5
51
330
22
100
AcDbEntity
  8
0
100
AcDbCircle
 10
22.59973089678116
 20
-7.271599258481472
 30
0.0
 40
1.5
100
AcDbArc
 50
270.0
 51
90.0
  0
ENDBLK
  5
52
330
22
100
AcDbEntity
  8
0
100
AcDbBlockEnd
  0
BLOCK
  5
2F2
330
2E8
100
AcDbEntity
  8
0
100
AcDbBlockBegin
  2
*D1
 70
     1
 10
0.0
 20
0.0
 30
0.0
  3
*D1
  1

  0
LINE
  5
722
330
2E8
100
AcDbEntity
  8
BEM
 62
     0
370
    -2
100
AcDbLine
 10
175.2345953296599
 20
564.0
 30
0.0
 11
143.7464630986768
 21
564.0
 31
0.0
  0
LINE
  5
723
330
2E8
100
AcDbEntity
  8
BEM
 62
     0
370
    -2
100
AcDbLine
 10
175.2345953296599
 20
163.9999999999998
 30
0.0
 11
143.7464630986767
 21
163.9999999999998
 31
0.0
  0
LINE
  5
724
330
2E8
100
AcDbEntity
  8
BEM
 62
     0
370
    -2
100
AcDbLine
 10
145.7464630986768
 20
557.0
 30
0.0
 11
145.7464630986767
 21
170.9999999999998
 31
0.0
  0
SOLID
  5
725
330
2E8
100
AcDbEntity
  8
BEM
 62
     0
100
AcDbTrace
 10
144.5797964320101
 20
557.0
 30
0.0
 11
146.9131297653435
 21
557.0
 31
0.0
 12
145.7464630986768
 22
564.0
 32
0.0
 13
145.7464630986768
 23
564.0
 33
0.0
  0
SOLID
  5
726
330
2E8
100
AcDbEntity
  8
BEM
 62
     0
100
AcDbTrace
 10
144.5797964320101
 20
170.9999999999998
 30
0.0
 11
146.9131297653434
 21
170.9999999999998
 31
0.0
 12
145.7464630986767
 22
163.9999999999998
 32
0.0
 13
145.7464630986767
 23
163.9999999999998
 33
0.0
  0
MTEXT
  5
727
330
2E8
100
AcDbEntity
  8
BEM
 62
     1
100
AcDbMText
 10
139.2464630986767
 20
364.0
 30
0.0
 40
7.0
 41
0.0
 71
     5
 72
     1
  1
\A1;750
 11
0.0000000000000001
 21
1.0
 31
0.0
 73
     1
 44
1.0
  0
POINT
  5
728
330
2E8
100
AcDbEntity
  8
Defpoints
 62
     0
100
AcDbPoint
 10
177.2345953296599
 20
564.0
 30
0.0
  0
POINT
  5
729
330
2E8
100
AcDbEntity
  8
Defpoints
 62
     0
100
AcDbPoint
 10
177.2345953296599
 20
163.9999999999998
 30
0.0
  0
POINT
  5
72A
330
2E8
100
AcDbEntity
  8
Defpoints
 62
     0
100
AcDbPoint
 10
145.7464630986767
 20
163.9999999999998
 30
0.0
  0
ENDBLK
  5
2F3
330
2E8
100
AcDbEntity
  8
0
100
AcDbBlockEnd
  0
BLOCK
  5
2FD
330
2F5
100
AcDbEntity
  8
0
100
AcDbBlockBegin
  2
*D2
 70
     1
 10
0.0
 20
0.0
 30
0.0
  3
*D2
  1

  0
LINE
  5
742
330
2F5
100
AcDbEntity
  8
BEM
 62
     0
370
    -2
100
AcDbLine
 10
180.4999999999999
 20
329.4337911143277
 30
0.0
 11
180.4999999999999
 21
328.3504577809943
 31
0.0
  0
LINE
  5
743
330
2F5
100
AcDbEntity
  8
BEM
 62
     0
370
    -2
100
AcDbLine
 10
269.5
 20
329.4337911143277
 30
0.0
 11
269.5
 21
328.3504577809943
 31
0.0
  0
LINE
  5
744
330
2F5
100
AcDbEntity
  8
BEM
 62
     0
370
    -2
100
AcDbLine
 10
187.5
 20
330.3504577809943
 30
0.0
 11
262.5
 21
330.3504577809943
 31
0.0
  0
SOLID
  5
745
330
2F5
100
AcDbEntity
  8
BEM
 62
     0
100
AcDbTrace
 10
187.5
 20
331.517124447661
 30
0.0
 11
187.5
 21
329.1837911143276
 31
0.0
 12
180.4999999999999
 22
330.3504577809943
 32
0.0
 13
180.4999999999999
 23
330.3504577809943
 33
0.0
  0
SOLID
  5
746
330
2F5
100
AcDbEntity
  8
BEM
 62
     0
100
AcDbTrace
 10
262.5
 20
331.517124447661
 30
0.0
 11
262.5
 21
329.1837911143276
 31
0.0
 12
269.5
 22
330.3504577809943
 32
0.0
 13
269.5
 23
330.3504577809943
 33
0.0
  0
MTEXT
  5
747
330
2F5
100
AcDbEntity
  8
BEM
 62
     1
100
AcDbMText
 10
225.0
 20
336.8504577809943
 30
0.0
 40
7.0
 41
0.0
 71
     5
 72
     1
  1
\A1;%%C89
 73
     1
 44
1.0
  0
POINT
  5
748
330
2F5
100
AcDbEntity
  8
Defpoints
 62
     0
100
AcDbPoint
 10
180.4999999999999
 20
331.4337911143277
 30
0.0
  0
POINT
  5
749
330
2F5
100
AcDbEntity
  8
Defpoints
 62
     0
100
AcDbPoint
 10
269.5
 20
331.4337911143277
 30
0.0
  0
POINT
  5
74A
330
2F5
100
AcDbEntity
  8
Defpoints
 62
     0
100
AcDbPoint
 10
269.5
 20
330.3504577809943
 30
0.0
  0
ENDBLK
  5
2FE
330
2F5
100
AcDbEntity
  8
0
100
AcDbBlockEnd
  0
BLOCK
  5
613
330
60F
100
AcDbEntity
  8
0
100
AcDbBlockBegin
  2
INDEX EN10305
 70
     0
 10
0.0
 20
0.0
 30
0.0
  3
INDEX EN10305
  1

  0
TEXT
  5
610
330
60F
100
AcDbEntity
  8
TEXT
 62
     1
100
AcDbText
 10
27.30288294732333
 20
9.539173287274124
 30
0.0
 40
3.5
  1
und innen beschichtet
 41
0.8
  7
GREEKS
100
AcDbText
  0
TEXT
  5
611
330
60F
100
AcDbEntity
  8
TEXT
 62
     1
100
AcDbText
 10
3.328024228624428
 20
14.90022919477586
 30
0.0
 40
3.5
  1
Werkstoff: E195 EN10305 feuerverzinkt
 41
0.8
  7
GREEKS
100
AcDbText
  0
ENDBLK
  5
614
330
60F
100
AcDbEntity
  8
0
100
AcDbBlockEnd
  0
BLOCK
  5
75F
330
755
100
AcDbEntity
  8
0
100
AcDbBlockBegin
  2
*D4
 70
     1
 10
0.0
 20
0.0
 30
0.0
  3
*D4
  1

  0
LINE
  5
761
330
755
100
AcDbEntity
  8
BEM
 62
     0
370
    -2
100
AcDbLine
 10
260.9
 20
301.4102438049422
 30
0.0
 11
253.9
 21
301.4102438049422
 31
0.0
  0
LINE
  5
762
330
755
100
AcDbEntity
  8
BEM
 62
     0
370
    -2
100
AcDbLine
 10
276.5
 20
301.4102438049422
 30
0.0
 11
299.9
 21
301.4102438049422
 31
0.0
  0
LINE
  5
763
330
755
100
AcDbEntity
  8
BEM
 62
     0
370
    -2
100
AcDbLine
 10
267.9
 20
301.4102438049422
 30
0.0
 11
269.5
 21
301.4102438049422
 31
0.0
  0
SOLID
  5
764
330
755
100
AcDbEntity
  8
BEM
 62
     0
100
AcDbTrace
 10
260.9
 20
302.5769104716089
 30
0.0
 11
260.9
 21
300.2435771382755
 31
0.0
 12
267.9
 22
301.4102438049422
 32
0.0
 13
267.9
 23
301.4102438049422
 33
0.0
  0
SOLID
  5
765
330
755
100
AcDbEntity
  8
BEM
 62
     0
100
AcDbTrace
 10
276.5
 20
302.5769104716089
 30
0.0
 11
276.5
 21
300.2435771382755
 31
0.0
 12
269.5
 22
301.4102438049422
 32
0.0
 13
269.5
 23
301.4102438049422
 33
0.0
  0
MTEXT
  5
766
330
755
100
AcDbEntity
  8
BEM
 62
     1
100
AcDbMText
 10
291.7
 20
307.9102438049422
 30
0.0
 40
7.0
 41
0.0
 71
     5
 72
     1
  1
\A1;1.6
 73
     1
 44
1.0
  0
POINT
  5
767
330
755
100
AcDbEntity
  8
Defpoints
 62
     0
100
AcDbPoint
 10
267.9
 20
301.4102438049422
 30
0.0
  0
POINT
  5
768
330
755
100
AcDbEntity
  8
Defpoints
 62
     0
100
AcDbPoint
 10
269.5
 20
301.4102438049422
 30
0.0
  0
POINT
  5
769
330
755
100
AcDbEntity
  8
Defpoints
 62
     0
100
AcDbPoint
 10
269.5
 20
301.4102438049422
 30
0.0
  0
ENDBLK
  5
760
330
755
100
AcDbEntity
  8
0
100
AcDbBlockEnd
  0
ENDSEC
  0
SECTION
  2
ENTITIES
  0
LINE
  5
57
330
1E
100
AcDbEntity
  8
STEMPEL
100
AcDbLine
 10
410.0
 20
110.0
 30
0.0
 11
39.99999999999997
 21
110.0
 31
0.0
  0
LINE
  5
58
330
1E
100
AcDbEntity
  8
STEMPEL
100
AcDbLine
 10
146.0000000000001
 20
109.9999999999999
 30
0.0
 11
146.0
 21
9.999999999999971
 31
0.0
  0
LINE
  5
59
330
1E
100
AcDbEntity
  8
STEMPEL
100
AcDbLine
 10
230.0
 20
110.0
 30
0.0
 11
230.0
 21
9.999999999999971
 31
0.0
  0
LINE
  5
5A
330
1E
100
AcDbEntity
  8
STEMPEL
100
AcDbLine
 10
332.0
 20
109.9999999999997
 30
0.0
 11
332.0
 21
40.0
 31
0.0
  0
LINE
  5
5B
330
1E
100
AcDbEntity
  8
STEMPEL
100
AcDbLine
 10
145.9999999999999
 20
29.99999999999997
 30
0.0
 11
39.99999999999997
 21
29.99999999999997
 31
0.0
  0
LINE
  5
5C
330
1E
100
AcDbEntity
  8
STEMPEL
100
AcDbLine
 10
410.0
 20
40.0
 30
0.0
 11
146.0000000000001
 21
39.99999999999997
 31
0.0
  0
LINE
  5
5D
330
1E
100
AcDbEntity
  8
STEMPEL
100
AcDbLine
 10
410.0
 20
80.0
 30
0.0
 11
146.0000000000001
 21
79.99999999999994
 31
0.0
  0
LINE
  5
5E
330
1E
100
AcDbEntity
  8
VOLL
100
AcDbLine
 10
54.00000000000009
 20
110.0
 30
0.0
 11
53.99999999999997
 21
9.999999999999971
 31
0.0
  0
LINE
  5
5F
330
1E
100
AcDbEntity
  8
VOLL
100
AcDbLine
 10
104.0000000000001
 20
109.9999999999999
 30
0.0
 11
104.0
 21
9.999999999999971
 31
0.0
  0
LINE
  5
60
330
1E
100
AcDbEntity
  8
VOLL
100
AcDbLine
 10
124.0000000000001
 20
109.9999999999999
 30
0.0
 11
124.0
 21
9.999999999999971
 31
0.0
  0
LINE
  5
61
330
1E
100
AcDbEntity
  8
VOLL
100
AcDbLine
 10
164.0000000000001
 20
79.99999999999994
 30
0.0
 11
164.0000000000001
 21
39.99999999999997
 31
0.0
  0
LINE
  5
62
330
1E
100
AcDbEntity
  8
VOLL
100
AcDbLine
 10
190.0000000000001
 20
109.9999999999998
 30
0.0
 11
190.0
 21
39.99999999999997
 31
0.0
  0
LINE
  5
63
330
1E
100
AcDbEntity
  8
HILF
100
AcDbLine
 10
40.00000000000008
 20
100.0
 30
0.0
 11
146.0000000000001
 21
100.0
 31
0.0
  0
LINE
  5
64
330
1E
100
AcDbEntity
  8
HILF
100
AcDbLine
 10
40.00000000000008
 20
90.00000000000005
 30
0.0
 11
146.0000000000001
 21
90.00000000000005
 31
0.0
  0
LINE
  5
65
330
1E
100
AcDbEntity
  8
HILF
100
AcDbLine
 10
40.00000000000008
 20
79.99999999999994
 30
0.0
 11
146.0000000000001
 21
79.99999999999994
 31
0.0
  0
LINE
  5
66
330
1E
100
AcDbEntity
  8
HILF
100
AcDbLine
 10
40.00000000000008
 20
69.99999999999994
 30
0.0
 11
146.0000000000001
 21
69.99999999999994
 31
0.0
  0
LINE
  5
67
330
1E
100
AcDbEntity
  8
HILF
100
AcDbLine
 10
40.00000000000008
 20
59.99999999999997
 30
0.0
 11
146.0000000000001
 21
59.99999999999997
 31
0.0
  0
LINE
  5
68
330
1E
100
AcDbEntity
  8
HILF
100
AcDbLine
 10
40.00000000000008
 20
49.99999999999997
 30
0.0
 11
146.0000000000001
 21
49.99999999999997
 31
0.0
  0
LINE
  5
69
330
1E
100
AcDbEntity
  8
HILF
100
AcDbLine
 10
40.00000000000008
 20
39.99999999999997
 30
0.0
 11
146.0000000000001
 21
39.99999999999997
 31
0.0
  0
LINE
  5
6A
330
1E
100
AcDbEntity
  8
HILF
100
AcDbLine
 10
146.0000000000001
 20
69.99999999999994
 30
0.0
 11
230.0
 21
69.99999999999994
 31
0.0
  0
LINE
  5
6B
330
1E
100
AcDbEntity
  8
HILF
100
AcDbLine
 10
146.0000000000001
 20
59.99999999999997
 30
0.0
 11
230.0
 21
59.99999999999997
 31
0.0
  0
LINE
  5
6C
330
1E
100
AcDbEntity
  8
HILF
100
AcDbLine
 10
146.0000000000001
 20
49.99999999999997
 30
0.0
 11
230.0
 21
49.99999999999997
 31
0.0
  0
LINE
  5
6D
330
1E
100
AcDbEntity
  8
HILF
100
AcDbLine
 10
234.7736801096947
 20
84.03758247564139
 30
0.0
 11
324.8353916556311
 21
84.03758247564139
 31
0.0
  0
LINE
  5
6E
330
1E
100
AcDbEntity
  8
HILF
100
AcDbLine
 10
234.7736801096947
 20
69.99999999999994
 30
0.0
 11
324.835391655631
 21
69.99999999999994
 31
0.0
  0
LINE
  5
6F
330
1E
100
AcDbEntity
  8
HILF
100
AcDbLine
 10
234.7736801096947
 20
59.99999999999997
 30
0.0
 11
324.835391655631
 21
59.99999999999997
 31
0.0
  0
LINE
  5
70
330
1E
100
AcDbEntity
  8
HILF
100
AcDbLine
 10
234.7736801096947
 20
49.99999999999997
 30
0.0
 11
324.835391655631
 21
49.99999999999997
 31
0.0
  0
LINE
  5
71
330
1E
100
AcDbEntity
  8
VOLL
100
AcDbLine
 10
332.0
 20
60.0
 30
0.0
 11
410.0
 21
60.0
 31
0.0
  0
LINE
  5
72
330
1E
100
AcDbEntity
  8
HILF
100
AcDbLine
 10
336.7238616296993
 20
83.77983636955827
 30
0.0
 11
404.8588839326728
 21
83.77983636955827
 31
0.0
  0
LINE
  5
73
330
1E
100
AcDbEntity
  8
HILF
100
AcDbLine
 10
233.4909699289885
 20
14.89398258028314
 30
0.0
 11
404.8588839326728
 21
14.89398258028314
 31
0.0
  0
TEXT
  5
74
330
1E
100
AcDbEntity
  8
TEXT
100
AcDbText
 10
67.79509897490102
 20
18.67381894984132
 30
0.0
 40
4.0
  1
Änderung
 41
0.8
  7
GREEKS
 72
     1
 11
78.53795611775817
 21
18.67381894984132
 31
0.0
100
AcDbText
  0
TEXT
  5
75
330
1E
100
AcDbEntity
  8
TEXT
100
AcDbText
 10
153.5163572150377
 20
102.4620895087088
 30
0.0
 40
5.0
  1
Maßstab
 41
0.8
  7
GREEKS
100
AcDbText
  0
TEXT
  5
76
330
1E
100
AcDbEntity
  8
TEXT
100
AcDbText
 10
194.2858954734051
 20
102.4184168434819
 30
0.0
 40
5.0
  1
Zul. Abw.
 41
0.8
  7
GREEKS
100
AcDbText
  0
TEXT
  5
77
330
1E
100
AcDbEntity
  8
TEXT
100
AcDbText
 10
234.877940380901
 20
102.5489328011779
 30
0.0
 40
5.0
  1
Benennung
 41
0.8
  7
GREEKS
100
AcDbText
  0
TEXT
  5
78
330
1E
100
AcDbEntity
  8
TEXT
100
AcDbText
 10
336.178754957634
 20
102.3132034537136
 30
0.0
 40
5.0
  1
Zeichnungs Nr.
 41
0.8
  7
GREEKS
100
AcDbText
  0
TEXT
  5
79
330
1E
100
AcDbEntity
  8
TEXT
100
AcDbText
 10
234.742238391136
 20
30.84560570193057
 30
0.0
 40
5.0
  1
Bauvorhaben
 41
0.8
  7
GREEKS
100
AcDbText
  0
TEXT
  5
7A
330
1E
100
AcDbEntity
  8
TEXT
100
AcDbText
 10
336.7238616296993
 20
73.1811823709997
 30
0.0
 40
5.0
  1
Ersatz für:
 41
0.8
  7
GREEKS
100
AcDbText
  0
TEXT
  5
7B
330
1E
100
AcDbEntity
  8
TEXT
100
AcDbText
 10
48.26641107045756
 20
13.65465846027192
 30
0.0
 40
4.0
  1
Index
 50
90.0
 41
0.8
  7
GREEKS
100
AcDbText
  0
TEXT
  5
7C
330
1E
100
AcDbEntity
  8
TEXT
100
AcDbText
 10
110.6986119235389
 20
18.6715626933981
 30
0.0
 40
4.0
  1
Tag
 41
0.8
  7
GREEKS
 72
     1
 11
114.4319452568723
 21
18.6715626933981
 31
0.0
100
AcDbText
  0
TEXT
  5
7D
330
1E
100
AcDbEntity
  8
TEXT
100
AcDbText
 10
129.0122744386592
 20
18.59324216966408
 30
0.0
 40
4.0
  1
Name
 41
0.8
  7
GREEKS
 72
     1
 11
135.3360839624688
 21
18.59324216966408
 31
0.0
100
AcDbText
  0
TEXT
  5
7E
330
1E
100
AcDbEntity
  8
TEXT
100
AcDbText
 10
172.331167315365
 20
73.31880501229926
 30
0.0
 40
4.0
  1
Tag
 41
0.8
  7
GREEKS
100
AcDbText
  0
TEXT
  5
7F
330
1E
100
AcDbEntity
  8
TEXT
100
AcDbText
 10
202.4626584226295
 20
73.30961091915225
 30
0.0
 40
4.0
  1
Name
 41
0.8
  7
GREEKS
100
AcDbText
  0
TEXT
  5
80
330
1E
100
AcDbEntity
  8
TEXT
100
AcDbText
 10
147.5836127167615
 20
63.62990369617964
 30
0.0
 40
4.0
  1
Gez.
 41
0.8
  7
GREEKS
100
AcDbText
  0
TEXT
  5
81
330
1E
100
AcDbEntity
  8
TEXT
100
AcDbText
 10
147.5515086571672
 20
53.68926291428377
 30
0.0
 40
4.0
  1
Gepr.
 41
0.8
  7
GREEKS
100
AcDbText
  0
TEXT
  5
82
330
1E
100
AcDbEntity
  8
TEXT
100
AcDbText
 10
147.6006777387303
 20
43.52946389649807
 30
0.0
 40
4.0
  1
Norm.
 41
0.8
  7
GREEKS
100
AcDbText
  0
LINE
  5
83
330
1E
100
AcDbEntity
  8
STEMPEL
100
AcDbLine
 10
49.99999999999989
 20
10.0
 30
0.0
 11
410.0
 21
10.0
 31
0.0
  0
TEXT
  5
84
330
1E
100
AcDbEntity
  8
TEXT
100
AcDbText
 10
337.2400861497006
 20
52.07416177878602
 30
0.0
 40
5.0
  1
ersetzt durch:
 41
0.8
  7
GREEKS
100
AcDbText
  0
LINE
  5
85
330
1E
100
AcDbEntity
  8
STEMPEL
100
AcDbLine
 10
410.0
 20
10.0
 30
0.0
 11
39.99999999999989
 21
10.0
 31
0.0
  0
LINE
  5
86
330
1E
100
AcDbEntity
  8
STEMPEL
100
AcDbLine
 10
410.0
 20
10.0
 30
0.0
 11
410.0
 21
584.0
 31
0.0
  0
LINE
  5
87
330
1E
100
AcDbEntity
  8
STEMPEL
100
AcDbLine
 10
40.0
 20
10.0
 30
0.0
 11
39.99999999999989
 21
584.0
 31
0.0
  0
LINE
  5
88
330
1E
100
AcDbEntity
  8
STEMPEL
100
AcDbLine
 10
410.0
 20
584.0
 30
0.0
 11
39.99999999999989
 21
584.0
 31
0.0
  0
LINE
  5
89
330
1E
100
AcDbEntity
  8
HILF
100
AcDbLine
 10
0.0
 20
0.0
 30
0.0
 11
-0.0000000000001137
 21
594.0
 31
0.0
  0
LINE
  5
8A
330
1E
100
AcDbEntity
  8
HILF
100
AcDbLine
 10
419.9999999999999
 20
594.0000000000002
 30
0.0
 11
0.0
 21
594.0
 31
0.0
  0
LINE
  5
8B
330
1E
100
AcDbEntity
  8
HILF
100
AcDbLine
 10
420.0
 20
0.0
 30
0.0
 11
0.0
 21
0.0
 31
0.0
  0
LINE
  5
8C
330
1E
100
AcDbEntity
  8
HILF
100
AcDbLine
 10
31.08767135713856
 20
297.0
 30
0.0
 11
0.0000000000001137
 21
297.0
 31
0.0
  0
TEXT
  5
8D
330
1E
100
AcDbEntity
  8
TEXT
100
AcDbText
 10
148.622109822104
 20
73.14025471151666
 30
0.0
 40
4.0
  1
2007
 41
0.8
  7
GREEKS
100
AcDbText
  0
LINE
  5
8E
330
1E
100
AcDbEntity
  8
HILF
100
AcDbLine
 10
420.0
 20
-0.0000000000001137
 30
0.0
 11
419.9999999999999
 21
594.0
 31
0.0
  0
TEXT
  5
8F
330
1E
100
AcDbEntity
  8
VOLL
100
AcDbText
 10
78.07675471698113
 20
31.02594776470585
 30
0.0
 40
1.8
  1

  7
GREEKS
100
AcDbText
  0
TEXT
  5
90
330
1E
100
AcDbEntity
  8
TEXT
100
AcDbText
 10
41.85509950977674
 20
111.6719999999999
 30
0.0
 40
5.0
  1
Erstellt mit AUTOCAD 2004
 41
0.8
  7
GREEKS
100
AcDbText
  0
TEXT
  5
91
330
1E
100
AcDbEntity
  8
TEXT
100
AcDbText
 10
204.4216048581257
 20
63.0896391972351
 30
0.0
 40
4.0
  1
Koeh
 41
0.8
  7
GREEKS
 72
     1
 11
209.6787477152686
 21
63.0896391972351
 31
0.0
100
AcDbText
  0
TEXT
  5
92
330
1E
100
AcDbEntity
  8
TEXT
 62
     1
100
AcDbText
 10
347.8961057399153
 20
88.14901428913959
 30
0.0
 40
7.0
  1
00121080W
 41
0.8
  7
GREEKS
 72
     1
 11
370.8294390732486
 21
88.14901428913959
 31
0.0
100
AcDbText
  0
TEXT
  5
93
330
1E
100
AcDbEntity
  8
TEXT
 62
     1
100
AcDbText
 10
160.5006306481887
 20
88.14901428913959
 30
0.0
 40
7.0
  1
1:2
 41
0.8
  7
GREEKS
100
AcDbText
  0
TEXT
  5
94
330
1E
100
AcDbEntity
  8
TEXT
100
AcDbText
 10
170.398997108236
 20
63.10765040825732
 30
0.0
 40
4.0
  1
28.08.
 41
0.8
  7
GREEKS
 72
     1
 11
177.4085209177598
 21
63.10765040825732
 31
0.0
100
AcDbText
  0
TEXT
  5
95
330
1E
100
AcDbEntity
  8
TEXT
 62
     1
100
AcDbText
 10
234.8732996649198
 20
87.41748789253779
 30
0.0
 40
7.0
  1
Rohr DN80
 41
0.8
  7
GREEKS
100
AcDbText
  0
TEXT
  5
96
330
1E
100
AcDbEntity
  8
TEXT
100
AcDbText
 10
235.1296391125315
 20
71.50334417585288
 30
0.0
 40
5.0
  1
mit 2 Muffen 750mm lang
 41
0.8
  7
GREEKS
100
AcDbText
  0
TEXT
  5
98
330
1E
100
AcDbEntity
  8
TEXT
100
AcDbText
 10
235.1296391125315
 20
51.64011943042158
 30
0.0
 40
5.0
  1
EDV-Art.Nr. 00121.080X
 41
0.8
  7
GREEKS
100
AcDbText
  0
TEXT
  5
99
330
1E
100
AcDbEntity
  8
TEXT
100
AcDbText
 10
234.9837501577827
 20
42.62974153022632
 30
0.0
 40
4.0
  1
00121080W.DWG
 41
0.8
  7
GREEKS
100
AcDbText
  0
TEXT
  5
9A
330
1E
100
AcDbEntity
  8
TEXT
100
AcDbText
 10
192.626132208084
 20
90.76363841023022
 30
0.0
 40
4.0
  1
DIN EN1123-2
 41
0.8
  7
GREEKS
 72
     1
 11
209.6166083985602
 21
90.76363841023022
 31
0.0
100
AcDbText
  0
INSERT
  5
9B
330
1E
100
AcDbEntity
  8
STEMPEL
100
AcDbBlockReference
  2
LOGO
 10
150.9955485457794
 20
45.02105276448322
 30
0.0
 41
2.0
 42
2.0
 43
2.0
  0
LINE
  5
116
330
1E
100
AcDbEntity
  8
MITTEL
100
AcDbLine
 10
225.0
 20
568.9999999999997
 30
0.0
 11
225.0
 21
341.9938814993983
 31
0.0
  0
TEXT
  5
11A
330
1E
100
AcDbEntity
  8
VOLL
100
AcDbText
 10
218.733571420083
 20
456.0973573562934
 30
0.0
 40
7.0
  1
DN80
 50
90.0
 41
0.8
  7
GREEKS
100
AcDbText
  0
DIMENSION
  5
2E7
330
1E
100
AcDbEntity
  8
BEM
100
AcDbDimension
  2
*D1
 10
145.7464630986767
 20
163.9999999999998
 30
0.0
 11
139.2464630986767
 21
364.0
 31
0.0
 70
    32
  1
750
 71
     5
 42
400.0
  3
Standard
100
AcDbAlignedDimension
 13
177.2345953296599
 23
564.0
 33
0.0
 14
177.2345953296599
 24
163.9999999999998
 34
0.0
 50
90.0
100
AcDbRotatedDimension
1001
ACAD
1000
DSTYLE
1002
{
1070
    40
1040
2.0
1070
    41
1040
3.5
1070
    42
1040
1.0
1070
    43
1040
7.0
1070
    44
1040
1.0
1070
    73
1070
     0
1070
    74
1070
     0
1070
    77
1070
     1
1070
    78
1070
     8
1070
    79
1070
     2
1070
   140
1040
3.5
1070
   141
1040
1.5
1070
   146
1040
0.5142857142857144
1070
   147
1040
1.5
1070
   172
1070
     1
1070
   178
1070
     1
1070
   179
1070
     2
1070
   271
1070
     2
1070
   272
1070
     2
1070
   284
1070
     8
1070
   285
1070
     8
1070
   286
1070
     8
1002
}
  0
DIMENSION
  5
2F4
330
1E
100
AcDbEntity
  8
BEM
100
AcDbDimension
  2
*D2
 10
269.5
 20
330.3504577809943
 30
0.0
 11
225.0
 21
336.8504577809943
 31
0.0
 70
    32
  1
%%C<>
 71
     5
 42
89.00000000000003
  3
Standard
100
AcDbAlignedDimension
 13
180.4999999999999
 23
331.4337911143277
 33
0.0
 14
269.5
 24
331.4337911143277
 34
0.0
100
AcDbRotatedDimension
1001
ACAD
1000
DSTYLE
1002
{
1070
    40
1040
2.0
1070
    41
1040
3.5
1070
    42
1040
1.0
1070
    43
1040
7.0
1070
    44
1040
1.0
1070
    73
1070
     0
1070
    74
1070
     0
1070
    77
1070
     1
1070
    78
1070
     8
1070
    79
1070
     2
1070
   140
1040
3.5
1070
   141
1040
1.5
1070
   146
1040
0.5142857142857144
1070
   147
1040
1.5
1070
   172
1070
     1
1070
   178
1070
     1
1070
   179
1070
     2
1070
   271
1070
     2
1070
   272
1070
     2
1070
   284
1070
     8
1070
   285
1070
     8
1070
   286
1070
     8
1002
}
  0
LINE
  5
328
330
1E
100
AcDbEntity
  8
MITTEL
100
AcDbLine
 10
224.9999999999999
 20
328.8114060975321
 30
0.0
 11
224.9999999999999
 21
158.9999999999998
 31
0.0
  0
SPLINE
  5
5F1
330
1E
100
AcDbEntity
  8
HILF
100
AcDbSpline
210
0.0
220
0.0
230
1.0
 70
     8
 71
     3
 72
    11
 73
     7
 74
     0
 42
0.0000000001
 43
0.0000000001
 40
6.627830350530127
 40
6.627830350530127
 40
6.627830350530127
 40
6.627830350530127
 40
25.98557292037257
 40
51.97114584074513
 40
77.9567187611177
 40
97.05949637524453
 40
97.05949637524453
 40
97.05949637524453
 40
97.05949637524453
 10
180.5
 20
377.7964832747251
 30
0.0
 10
186.8286698909299
 20
379.543771300665
 30
0.0
 10
201.6583959791113
 20
382.7976330195899
 30
0.0
 10
225.0667778882025
 20
375.7959146369124
 30
0.0
 10
248.0261941591663
 20
369.4857779413291
 30
0.0
 10
263.3452669242322
 20
371.6337057784997
 30
0.0
 10
269.5
 20
373.513887945316
 30
0.0
  0
SPLINE
  5
5F2
330
1E
100
AcDbEntity
  8
HILF
100
AcDbSpline
210
0.0
220
0.0
230
1.0
 70
     8
 71
     3
 72
    11
 73
     7
 74
     0
 42
0.0000000001
 43
0.0000000001
 40
6.627830350530122
 40
6.627830350530122
 40
6.627830350530122
 40
6.627830350530122
 40
25.98557292037257
 40
51.97114584074513
 40
77.9567187611177
 40
97.05949637524449
 40
97.05949637524449
 40
97.05949637524449
 40
97.05949637524449
 10
180.5
 20
382.7964832747253
 30
0.0
 10
186.8286698909299
 20
384.5437713006651
 30
0.0
 10
201.6583959791113
 20
387.79763301959
 30
0.0
 10
225.0667778882025
 20
380.7959146369124
 30
0.0
 10
248.0261941591663
 20
374.4857779413291
 30
0.0
 10
263.3452669242322
 20
376.6337057784998
 30
0.0
 10
269.5
 20
378.513887945316
 30
0.0
  0
INSERT
  5
615
330
1E
100
AcDbEntity
  8
VOLL
100
AcDbBlockReference
  2
INDEX EN10305
 10
190.0000000000001
 20
110.0
 30
0.0
 41
2.0
 42
2.0
 43
2.0
  0
TEXT
  5
67B
330
1E
100
AcDbEntity
  8
BEM
100
AcDbText
 10
416.5811541437437
 20
12.14804815338303
 30
0.0
 40
4.0
  1
Diese Zeichnung ist urheberrechtlich geschützt und bleibt unser Eigentum. Sie darf weder ganz noch teilweise vervielfältigt und nicht an Dritte weitergegeben werden.
 50
90.0
 41
0.8
  7
GREEKS
100
AcDbText
  0
LINE
  5
6D7
330
1E
100
AcDbEntity
  8
STEMPEL
100
AcDbLine
 10
276.0999999999999
 20
551.3952485374289
 30
0.0
 11
276.0999999999999
 21
544.436425057399
 31
0.0
  0
LINE
  5
6D9
330
1E
100
AcDbEntity
  8
STEMPEL
100
AcDbLine
 10
173.8999999999999
 20
551.3952485374289
 30
0.0
 11
173.8999999999999
 21
544.436425057399
 31
0.0
  0
LINE
  5
6DC
330
1E
100
AcDbEntity
  8
STEMPEL
100
AcDbLine
 10
269.4999999999999
 20
498.6934003354313
 30
0.0
 11
269.4999999999999
 21
378.5138879453161
 31
0.0
  0
LINE
  5
6DF
330
1E
100
AcDbEntity
  8
STEMPEL
100
AcDbLine
 10
180.4999999999999
 20
498.6934003354313
 30
0.0
 11
180.4999999999999
 21
382.7964832747252
 31
0.0
  0
LINE
  5
6E2
330
1E
100
AcDbEntity
  8
HILF
100
AcDbLine
 10
181.7204989019032
 20
501.3659272295898
 30
0.0
 11
268.2795010980966
 21
501.3659272295899
 31
0.0
  0
LINE
  5
6E3
330
1E
100
AcDbEntity
  8
HILF
100
AcDbLine
 10
179.4111261896047
 20
506.4934889487453
 30
0.0
 11
270.5888738103951
 21
506.4934889487453
 31
0.0
  0
LINE
  5
6E4
330
1E
100
AcDbEntity
  8
HILF
100
AcDbLine
 10
178.670113341997
 20
531.6371294194473
 30
0.0
 11
271.3298866580028
 21
531.6371294194472
 31
0.0
  0
LINE
  5
6E6
330
1E
100
AcDbEntity
  8
STEMPEL
100
AcDbLine
 10
177.3999999999999
 20
528.6598669368048
 30
0.0
 11
177.3999999999999
 21
509.388726417417
 31
0.0
  0
ARC
  5
6E9
330
1E
100
AcDbEntity
  8
STEMPEL
100
AcDbCircle
 10
189.3999999999999
 20
509.388726417417
 30
0.0
 40
12.0
100
AcDbArc
 50
180.0
 51
212.3280641221617
  0
ARC
  5
6EA
330
1E
100
AcDbEntity
  8
STEMPEL
100
AcDbCircle
 10
172.4999999999999
 20
498.6934003354313
 30
0.0
 40
8.0
100
AcDbArc
 50
0.0
 51
32.32806412216171
  0
ARC
  5
6EC
330
1E
100
AcDbEntity
  8
STEMPEL
100
AcDbCircle
 10
165.3999999999999
 20
528.6598669368048
 30
0.0
 40
12.0
100
AcDbArc
 50
0.0
 51
25.30772309802418
  0
ARC
  5
6EE
330
1E
100
AcDbEntity
  8
STEMPEL
100
AcDbCircle
 10
198.8999999999999
 20
544.3681450092098
 30
0.0
 40
25.00009324312574
100
AcDbArc
 50
179.8435140456526
 51
205.0329424415662
  0
LINE
  5
6EF
330
1E
100
AcDbEntity
  8
STEMPEL
100
AcDbLine
 10
272.5999999999999
 20
528.6598669368048
 30
0.0
 11
272.5999999999999
 21
509.388726417417
 31
0.0
  0
ARC
  5
6F2
330
1E
100
AcDbEntity
  8
STEMPEL
100
AcDbCircle
 10
260.6
 20
509.388726417417
 30
0.0
 40
12.0
100
AcDbArc
 50
327.6719358778383
 51
0.0
  0
ARC
  5
6F4
330
1E
100
AcDbEntity
  8
STEMPEL
100
AcDbCircle
 10
277.4999999999999
 20
498.6934003354313
 30
0.0
 40
8.0
100
AcDbArc
 50
147.6719358778383
 51
180.0
  0
ARC
  5
6F5
330
1E
100
AcDbEntity
  8
STEMPEL
100
AcDbCircle
 10
284.6
 20
528.6598669368048
 30
0.0
 40
12.0
100
AcDbArc
 50
154.6922769019824
 51
180.0
  0
ARC
  5
6F8
330
1E
100
AcDbEntity
  8
STEMPEL
100
AcDbCircle
 10
251.0999999999999
 20
544.3681450092098
 30
0.0
 40
25.00009324312574
100
AcDbArc
 50
334.9670575584374
 51
0.1564859543473726
  0
LINE
  5
6F9
330
1E
100
AcDbEntity
  8
STEMPEL
100
AcDbLine
 10
272.7654046703399
 20
564.0
 30
0.0
 11
177.2345953296599
 21
564.0
 31
0.0
  0
ARC
  5
6FB
330
1E
100
AcDbEntity
  8
STEMPEL
100
AcDbCircle
 10
198.4999999999999
 20
551.3952485374289
 30
0.0
 40
24.6
100
AcDbArc
 50
155.0000000000072
 51
180.0
  0
LINE
  5
6FC
330
1E
100
AcDbEntity
  8
STEMPEL
100
AcDbLine
 10
177.2345953296599
 20
564.0
 30
0.0
 11
176.2048284388984
 21
561.7916577762502
 31
0.0
  0
ARC
  5
6FF
330
1E
100
AcDbEntity
  8
STEMPEL
100
AcDbCircle
 10
251.4999999999999
 20
551.3952485374289
 30
0.0
 40
24.6
100
AcDbArc
 50
0.0
 51
24.99999999998912
  0
LINE
  5
700
330
1E
100
AcDbEntity
  8
STEMPEL
100
AcDbLine
 10
272.7654046703399
 20
564.0
 30
0.0
 11
273.7951715611014
 21
561.7916577762502
 31
0.0
  0
LINE
  5
702
330
1E
100
AcDbEntity
  8
STEMPEL
100
AcDbLine
 10
177.23459532966
 20
163.9999999999998
 30
0.0
 11
176.2048284388984
 21
166.2083422237495
 31
0.0
  0
ARC
  5
703
330
1E
100
AcDbEntity
  8
STEMPEL
100
AcDbCircle
 10
198.4999999999999
 20
176.6047514625708
 30
0.0
 40
24.6
100
AcDbArc
 50
180.0
 51
204.9999999999891
  0
LINE
  5
704
330
1E
100
AcDbEntity
  8
STEMPEL
100
AcDbLine
 10
272.7654046703399
 20
163.9999999999998
 30
0.0
 11
273.7951715611015
 21
166.2083422237495
 31
0.0
  0
ARC
  5
705
330
1E
100
AcDbEntity
  8
STEMPEL
100
AcDbCircle
 10
251.4999999999999
 20
176.6047514625708
 30
0.0
 40
24.6
100
AcDbArc
 50
335.0000000000073
 51
0.0
  0
LINE
  5
706
330
1E
100
AcDbEntity
  8
STEMPEL
100
AcDbLine
 10
177.2345953296599
 20
163.9999999999998
 30
0.0
 11
272.7654046703399
 21
163.9999999999998
 31
0.0
  0
ARC
  5
707
330
1E
100
AcDbEntity
  8
STEMPEL
100
AcDbCircle
 10
198.8999999999999
 20
183.63185499079
 30
0.0
 40
25.00009324312574
100
AcDbArc
 50
154.9670575584373
 51
180.1564859543473
  0
ARC
  5
708
330
1E
100
AcDbEntity
  8
STEMPEL
100
AcDbCircle
 10
165.3999999999998
 20
199.3401330631949
 30
0.0
 40
12.0
100
AcDbArc
 50
334.6922769019824
 51
0.0
  0
ARC
  5
709
330
1E
100
AcDbEntity
  8
STEMPEL
100
AcDbCircle
 10
172.4999999999999
 20
229.3065996645684
 30
0.0
 40
8.0
100
AcDbArc
 50
327.6719358778383
 51
0.0
  0
ARC
  5
70A
330
1E
100
AcDbEntity
  8
STEMPEL
100
AcDbCircle
 10
189.3999999999999
 20
218.6112735825827
 30
0.0
 40
12.0
100
AcDbArc
 50
147.6719358778382
 51
180.0
  0
LINE
  5
70B
330
1E
100
AcDbEntity
  8
STEMPEL
100
AcDbLine
 10
177.3999999999999
 20
199.340133063195
 30
0.0
 11
177.3999999999999
 21
218.6112735825828
 31
0.0
  0
ARC
  5
70C
330
1E
100
AcDbEntity
  8
STEMPEL
100
AcDbCircle
 10
251.0999999999999
 20
183.63185499079
 30
0.0
 40
25.00009324312574
100
AcDbArc
 50
359.8435140456526
 51
25.03294244156619
  0
ARC
  5
70D
330
1E
100
AcDbEntity
  8
STEMPEL
100
AcDbCircle
 10
284.5999999999999
 20
199.3401330631949
 30
0.0
 40
12.0
100
AcDbArc
 50
180.0
 51
205.3077230980242
  0
ARC
  5
70E
330
1E
100
AcDbEntity
  8
STEMPEL
100
AcDbCircle
 10
277.4999999999999
 20
229.3065996645684
 30
0.0
 40
8.0
100
AcDbArc
 50
180.0
 51
212.3280641221617
  0
ARC
  5
70F
330
1E
100
AcDbEntity
  8
STEMPEL
100
AcDbCircle
 10
260.5999999999999
 20
218.6112735825827
 30
0.0
 40
12.0
100
AcDbArc
 50
0.0
 51
32.3280641221617
  0
LINE
  5
710
330
1E
100
AcDbEntity
  8
STEMPEL
100
AcDbLine
 10
272.5999999999999
 20
199.3401330631949
 30
0.0
 11
272.6
 21
218.6112735825827
 31
0.0
  0
LINE
  5
711
330
1E
100
AcDbEntity
  8
HILF
100
AcDbLine
 10
271.3298866580028
 20
196.3628705805525
 30
0.0
 11
178.6701133419971
 21
196.3628705805526
 31
0.0
  0
LINE
  5
712
330
1E
100
AcDbEntity
  8
HILF
100
AcDbLine
 10
270.5888738103952
 20
221.5065110512545
 30
0.0
 11
179.4111261896048
 21
221.5065110512545
 31
0.0
  0
LINE
  5
713
330
1E
100
AcDbEntity
  8
HILF
100
AcDbLine
 10
268.2795010980967
 20
226.63407277041
 30
0.0
 11
181.7204989019033
 21
226.6340727704099
 31
0.0
  0
LINE
  5
714
102
{ACAD_REACTORS
330
773
102
}
330
1E
100
AcDbEntity
  8
STEMPEL
100
AcDbLine
 10
269.5
 20
229.3065996645684
 30
0.0
 11
269.5
 21
373.513887945316
 31
0.0
  0
LINE
  5
715
330
1E
100
AcDbEntity
  8
STEMPEL
100
AcDbLine
 10
180.4999999999999
 20
229.3065996645685
 30
0.0
 11
180.4999999999999
 21
377.7964832747252
 31
0.0
  0
LINE
  5
717
330
1E
100
AcDbEntity
  8
STEMPEL
100
AcDbLine
 10
276.1
 20
176.6047514625709
 30
0.0
 11
276.1
 21
183.5635749426008
 31
0.0
  0
LINE
  5
718
330
1E
100
AcDbEntity
  8
STEMPEL
100
AcDbLine
 10
173.8999999999999
 20
176.6047514625709
 30
0.0
 11
173.8999999999999
 21
183.5635749426008
 31
0.0
  0
LINE
  5
753
102
{ACAD_REACTORS
330
773
102
}
330
1E
100
AcDbEntity
  8
STEMPEL
100
AcDbLine
 10
267.9
 20
284.853965704759
 30
0.0
 11
267.9
 21
313.8458013141983
 31
0.0
  0
DIMENSION
  5
754
330
1E
100
AcDbEntity
  8
BEM
100
AcDbDimension
  2
*D4
 10
269.5
 20
301.4102438049422
 30
0.0
 11
291.7
 21
307.9102438049422
 31
0.0
 70
    32
 71
     5
 42
1.600000000000022
  3
Standard
100
AcDbAlignedDimension
 13
267.9
 23
301.4102438049422
 33
0.0
 14
269.5
 24
301.4102438049422
 34
0.0
100
AcDbRotatedDimension
1001
ACAD
1000
DSTYLE
1002
{
1070
    40
1040
2.0
1070
    41
1040
3.5
1070
    42
1040
1.0
1070
    43
1040
7.0
1070
    44
1040
1.0
1070
    73
1070
     0
1070
    74
1070
     0
1070
    77
1070
     1
1070
    78
1070
     8
1070
    79
1070
     2
1070
   140
1040
3.5
1070
   141
1040
1.5
1070
   146
1040
0.5142857142857144
1070
   147
1040
1.5
1070
   172
1070
     1
1070
   178
1070
     1
1070
   179
1070
     2
1070
   271
1070
     2
1070
   272
1070
     2
1070
   284
1070
     8
1070
   285
1070
     8
1070
   286
1070
     8
1002
}
  0
SPLINE
  5
76A
102
{ACAD_REACTORS
330
773
102
}
330
1E
100
AcDbEntity
  8
HILF
100
AcDbSpline
210
0.0
220
0.0
230
1.0
 70
     8
 71
     3
 72
    12
 73
     8
 74
     0
 42
0.0000000001
 43
0.0000000001
 40
1.213932803670602
 40
1.213932803670602
 40
1.213932803670602
 40
1.213932803670602
 40
10.41998740158458
 40
22.15778467589447
 40
30.98836235985173
 40
46.0986147804987
 40
50.17369578787222
 40
50.17369578787222
 40
50.17369578787222
 40
50.17369578787222
 10
269.5000000000001
 20
314.2825306888488
 30
0.0
 10
266.5557227245871
 20
313.4974897018834
 30
0.0
 10
259.8871771137214
 20
311.5594965207175
 30
0.0
 10
251.2317598459202
 20
304.5841335357469
 30
0.0
 10
252.1294594339328
 20
291.0077062363273
 30
0.0
 10
261.8647206597196
 20
286.4614702185373
 30
0.0
 10
268.1710881277392
 20
284.7689759747797
 30
0.0
 10
269.5000000000001
 20
284.4512680889087
 30
0.0
  0
HATCH
  5
773
330
1E
100
AcDbEntity
  8
SCHRAFF
100
AcDbHatch
 10
0.0
 20
0.0
 30
0.0
210
0.0
220
0.0
230
1.0
  2
_USER
 70
     0
 71
     1
 91
        1
 92
        5
 93
        4
 72
     4
 94
        3
 73
     0
 74
     0
 95
        8
 96
        4
 40
48.54380937419318
 40
48.54380937419318
 40
48.54380937419318
 40
48.54380937419318
 40
50.17369578787222
 40
50.17369578787222
 40
50.17369578787222
 40
50.17369578787222
 10
267.8999999999999
 20
284.8539657047591
 10
268.435270219007
 20
284.7120965389363
 10
268.9684828591983
 20
284.5783398614116
 10
269.5000000000001
 20
284.4512680889087
 72
     1
 10
269.5
 20
284.4512680889087
 11
269.5
 21
314.2825306888488
 72
     4
 94
        3
 73
     0
 74
     0
 95
        8
 96
        4
 40
1.213932803670602
 40
1.213932803670602
 40
1.213932803670602
 40
1.213932803670602
 40
2.883497942545117
 40
2.883497942545117
 40
2.883497942545117
 40
2.883497942545117
 10
269.5000000000001
 20
314.2825306888488
 10
268.9660402405909
 20
314.1401594862359
 10
268.4325099975321
 20
313.9955905627071
 10
267.9
 20
313.8458013141983
 72
     1
 10
267.9
 20
313.8458013141983
 11
267.9
 21
284.8539657047591
 97
        3
330
76A
330
753
330
714
 75
     0
 76
     0
 52
45.0
 41
2.0
 77
     0
 78
     1
 53
45.0
 43
0.0
 44
0.0
 45
-1.414213562373094
 46
1.414213562373095
 79
     0
 47
0.2592740308435101
 98
        1
 10
268.3299589383796
 20
290.4782738611323
  0
ENDSEC
  0
SECTION
  2
OBJECTS
  0
DICTIONARY
  5
C
330
0
100
AcDbDictionary
281
     1
  3
ACAD_COLOR
350
DF
  3
ACAD_GROUP
350
D
  3
ACAD_LAYOUT
350
19
  3
ACAD_MATERIAL
350
DE
  3
ACAD_MLINESTYLE
350
16
  3
ACAD_PLOTSETTINGS
350
18
  3
ACAD_PLOTSTYLENAME
350
E
  3
AcDbVariableDictionary
350
24C
  0
DICTIONARY
  5
A0
330
1E
100
AcDbDictionary
280
     1
281
     1
  3
ACAD_LAYOUTSELFREF
360
D4
  0
DICTIONARY
  5
A2
330
1A
100
AcDbDictionary
280
     1
281
     1
  3
ACAD_LAYOUTSELFREF
360
D3
  0
DICTIONARY
  5
612
330
60F
100
AcDbDictionary
280
     1
281
     1
  0
DICTIONARY
  5
DF
102
{ACAD_REACTORS
330
C
102
}
330
C
100
AcDbDictionary
281
     1
  0
DICTIONARY
  5
D
102
{ACAD_REACTORS
330
C
102
}
330
C
100
AcDbDictionary
281
     1
  0
DICTIONARY
  5
19
102
{ACAD_REACTORS
330
C
102
}
330
C
100
AcDbDictionary
281
     1
  3
Layout1
350
1D
  3
Model
350
21
  0
DICTIONARY
  5
DE
102
{ACAD_REACTORS
330
C
102
}
330
C
100
AcDbDictionary
281
     1
  0
DICTIONARY
  5
16
102
{ACAD_REACTORS
330
C
102
}
330
C
100
AcDbDictionary
281
     1
  3
Standard
350
17
  0
DICTIONARY
  5
18
102
{ACAD_REACTORS
330
C
102
}
330
C
100
AcDbDictionary
281
     1
  0
ACDBDICTIONARYWDFLT
  5
E
102
{ACAD_REACTORS
330
C
102
}
330
C
100
AcDbDictionary
281
     1
  3
Normal
350
F
100
AcDbDictionaryWithDefault
340
F
  0
DICTIONARY
  5
24C
102
{ACAD_REACTORS
330
C
102
}
330
C
100
AcDbDictionary
281
     1
  3
DIMASSOC
350
24D
  3
PROJECTNAME
350
24E
  0
XRECORD
  5
D4
102
{ACAD_REACTORS
330
A0
102
}
330
A0
100
AcDbXrecord
280
     1
340
1E
  0
XRECORD
  5
D3
102
{ACAD_REACTORS
330
A2
102
}
330
A2
100
AcDbXrecord
280
     1
340
1A
  0
LAYOUT
  5
1D
102
{ACAD_REACTORS
330
19
102
}
330
19
100
AcDbPlotSettings
  1

  2
\\NT_WORK01\HP LaserJet 5000 PCL 6
  4

  6

 40
0.0
 41
0.0
 42
0.0
 43
0.0
 44
0.0
 45
0.0
 46
0.0
 47
0.0
 48
0.0
 49
0.0
140
0.0
141
0.0
142
1.0
143
1.0
 70
   688
 72
     0
 73
     0
 74
     5
  7
monochrome1.ctb
 75
    16
147
1.0
 76
     0
 77
     2
 78
   300
148
0.0
149
0.0
100
AcDbLayout
  1
Layout1
 70
     0
 71
     1
 10
0.0
 20
0.0
 11
12.0
 21
9.0
 12
0.0
 22
0.0
 32
0.0
 14
1.000000000000000E+20
 24
1.000000000000000E+20
 34
1.000000000000000E+20
 15
-1.000000000000000E+20
 25
-1.000000000000000E+20
 35
-1.000000000000000E+20
146
0.0
 13
0.0
 23
0.0
 33
0.0
 16
1.0
 26
0.0
 36
0.0
 17
0.0
 27
1.0
 37
0.0
 76
     0
330
1A
  0
LAYOUT
  5
21
102
{ACAD_REACTORS
330
19
102
}
330
19
100
AcDbPlotSettings
  1

  2
RICOH Aficio 2027 PCL 6
  4
A4
  6

 40
5.027083396911621
 41
5.027085304260253
 42
5.027084350585937
 43
5.027069091796875
 44
209.9733276367187
 45
296.9259948730469
 46
0.0
 47
2.06
 48
0.0
 49
0.0
140
0.0
141
0.0
142
1.0
143
2.100849164395896
 70
 11956
 72
     1
 73
     0
 74
     2
  7
monochrome1.ctb
 75
     0
147
0.4759979997362411
 76
     0
 77
     2
 78
   300
148
0.0
149
0.0
100
AcDbLayout
  1
Model
 70
     1
 71
     0
 10
0.0
 20
0.0
 11
12.0
 21
9.0
 12
0.0
 22
0.0
 32
0.0
 14
0.0
 24
0.0
 34
0.0
 15
0.0
 25
0.0
 35
0.0
146
0.0
 13
0.0
 23
0.0
 33
0.0
 16
1.0
 26
0.0
 36
0.0
 17
0.0
 27
1.0
 37
0.0
 76
     0
330
1E
  0
MLINESTYLE
  5
17
102
{ACAD_REACTORS
330
16
102
}
330
16
100
AcDbMlineStyle
  2
STANDARD
 70
     0
  3

 62
   256
 51
90.0
 52
90.0
 71
     2
 49
0.5
 62
   256
  6
BYLAYER
 49
-0.5
 62
   256
  6
BYLAYER
  0
ACDBPLACEHOLDER
  5
F
102
{ACAD_REACTORS
330
E
102
}
330
E
  0
DICTIONARYVAR
  5
24D
102
{ACAD_REACTORS
330
24C
102
}
330
24C
100
DictionaryVariables
280
     0
  1
1
  0
DICTIONARYVAR
  5
24E
102
{ACAD_REACTORS
330
24C
102
}
330
24C
100
DictionaryVariables
280
     0
  1

  0
ENDSEC
  0
EOF
